osu file format v14

[General]
AudioFilename: cYsmix - Dovregubben's Hall 224.mp3
AudioLeadIn: 1500
PreviewTime: -1
Countdown: 0
SampleSet: None
StackLeniency: 0.7
Mode: 3
LetterboxInBreaks: 0
WidescreenStoryboard: 1

[Editor]
DistanceSpacing: 1.6
BeatDivisor: 4
GridSize: 4
TimelineZoom: 1

[Metadata]
Title:MDx2v3
TitleUnicode:MDx2v3
Artist:cYsmix
ArtistUnicode:cYsmix
Creator:Hydria
Version:Dovregubben's Hall
Source:
Tags:
BeatmapID:802488
BeatmapSetID:365584

[Difficulty]
HPDrainRate:8
CircleSize:4
OverallDifficulty:8
ApproachRate:5
SliderMultiplier:1.4
SliderTickRate:1

[Events]
//Background and Video events
0,0,"osu!cysmix-bgtiny.jpg",0,0
//Break Periods
//Storyboard Layer 0 (Background)
//Storyboard Layer 1 (Fail)
//Storyboard Layer 2 (Pass)
//Storyboard Layer 3 (Foreground)
//Storyboard Sound Samples

[TimingPoints]
1786,428.571428571429,4,1,0,15,1,0
173214,1000000000000000000,4,1,0,15,1,0
173857,428.571428571429,4,1,0,15,1,0

[HitObjects]
192,192,1357,128,0,1786:0:0:0:0:
64,192,1786,1,0,0:0:0:0:
448,192,1786,1,0,0:0:0:0:
448,192,1893,1,0,0:0:0:0:
320,192,2000,1,0,0:0:0:0:
192,192,2000,1,0,0:0:0:0:
64,192,2107,1,0,0:0:0:0:
320,192,2214,1,0,0:0:0:0:
448,192,2214,1,0,0:0:0:0:
192,192,2321,1,0,0:0:0:0:
448,192,2428,1,0,0:0:0:0:
64,192,2428,1,0,0:0:0:0:
320,192,2536,1,0,0:0:0:0:
192,192,2643,1,0,0:0:0:0:
64,192,2643,1,0,0:0:0:0:
192,192,2750,1,0,0:0:0:0:
448,192,2857,1,0,0:0:0:0:
448,192,2964,1,0,0:0:0:0:
64,192,3071,1,0,0:0:0:0:
320,192,3071,1,0,0:0:0:0:
192,192,3178,1,0,0:0:0:0:
448,192,3286,1,0,0:0:0:0:
320,192,3393,1,0,0:0:0:0:
192,192,3500,1,0,0:0:0:0:
64,192,3500,1,0,0:0:0:0:
448,192,3607,1,0,0:0:0:0:
320,192,3714,1,0,0:0:0:0:
64,192,3821,1,0,0:0:0:0:
192,192,3821,1,0,0:0:0:0:
448,192,3928,1,0,0:0:0:0:
320,192,4036,1,0,0:0:0:0:
192,192,4143,1,0,0:0:0:0:
64,192,4250,1,0,0:0:0:0:
320,192,4357,1,0,0:0:0:0:
448,192,4357,1,0,0:0:0:0:
448,192,4464,1,0,0:0:0:0:
320,192,4464,1,0,0:0:0:0:
64,192,4571,1,0,0:0:0:0:
192,192,4571,1,0,0:0:0:0:
320,192,4678,1,0,0:0:0:0:
448,192,4678,1,0,0:0:0:0:
192,192,4786,1,0,0:0:0:0:
64,192,4786,1,0,0:0:0:0:
320,192,4893,1,0,0:0:0:0:
320,192,5000,1,0,0:0:0:0:
192,192,5107,1,0,0:0:0:0:
192,192,5214,1,0,0:0:0:0:
448,192,5214,1,0,0:0:0:0:
320,192,5321,1,0,0:0:0:0:
64,192,5428,128,0,5643:0:0:0:0:
192,192,5536,1,0,0:0:0:0:
320,192,5643,1,0,0:0:0:0:
448,192,5643,1,0,0:0:0:0:
64,192,5750,1,0,0:0:0:0:
192,192,5857,1,0,0:0:0:0:
320,192,5964,1,0,0:0:0:0:
448,192,6071,1,0,0:0:0:0:
64,192,6071,1,0,0:0:0:0:
192,192,6178,1,0,0:0:0:0:
320,192,6178,1,0,0:0:0:0:
448,192,6286,1,0,0:0:0:0:
64,192,6286,1,0,0:0:0:0:
192,192,6393,1,0,0:0:0:0:
320,192,6393,1,0,0:0:0:0:
64,192,6500,1,0,0:0:0:0:
448,192,6500,1,0,0:0:0:0:
320,192,6607,1,0,0:0:0:0:
64,192,6714,1,0,0:0:0:0:
192,192,6714,1,0,0:0:0:0:
448,192,6821,1,0,0:0:0:0:
320,192,6928,1,0,0:0:0:0:
192,192,6928,1,0,0:0:0:0:
64,192,7036,1,0,0:0:0:0:
320,192,7143,1,0,0:0:0:0:
448,192,7143,1,0,0:0:0:0:
192,192,7250,128,0,7357:0:0:0:0:
64,192,7357,1,0,0:0:0:0:
448,192,7357,1,0,0:0:0:0:
320,192,7464,1,0,0:0:0:0:
64,192,7571,1,0,0:0:0:0:
192,192,7571,1,0,0:0:0:0:
192,192,7678,1,0,0:0:0:0:
64,192,7678,1,0,0:0:0:0:
320,192,7786,1,0,0:0:0:0:
448,192,7786,1,0,0:0:0:0:
320,192,7893,1,0,0:0:0:0:
448,192,7893,1,0,0:0:0:0:
192,192,8000,1,0,0:0:0:0:
64,192,8000,1,0,0:0:0:0:
320,192,8107,1,0,0:0:0:0:
448,192,8107,1,0,0:0:0:0:
64,192,8214,1,0,0:0:0:0:
192,192,8321,1,0,0:0:0:0:
448,192,8428,1,0,0:0:0:0:
320,192,8536,1,0,0:0:0:0:
192,192,8643,1,0,0:0:0:0:
64,192,8643,1,0,0:0:0:0:
448,192,8643,1,0,0:0:0:0:
320,192,8750,1,0,0:0:0:0:
192,192,8857,1,0,0:0:0:0:
64,192,8964,1,0,0:0:0:0:
192,192,9071,1,0,0:0:0:0:
320,192,9071,1,0,0:0:0:0:
448,192,9071,1,0,0:0:0:0:
64,192,9178,1,0,0:0:0:0:
192,192,9286,1,0,0:0:0:0:
448,192,9393,1,0,0:0:0:0:
320,192,9500,1,0,0:0:0:0:
192,192,9500,1,0,0:0:0:0:
64,192,9500,1,0,0:0:0:0:
448,192,9607,1,0,0:0:0:0:
320,192,9714,1,0,0:0:0:0:
192,192,9821,1,0,0:0:0:0:
64,192,9928,1,0,0:0:0:0:
320,192,9928,1,0,0:0:0:0:
448,192,9928,1,0,0:0:0:0:
192,192,10000,1,0,0:0:0:0:
320,192,10071,1,0,0:0:0:0:
448,192,10143,1,0,0:0:0:0:
64,192,10250,1,0,0:0:0:0:
192,192,10357,1,0,0:0:0:0:
320,192,10357,1,0,0:0:0:0:
448,192,10357,1,0,0:0:0:0:
64,192,10464,1,0,0:0:0:0:
192,192,10571,1,0,0:0:0:0:
448,192,10678,1,0,0:0:0:0:
320,192,10786,1,0,0:0:0:0:
192,192,10786,1,0,0:0:0:0:
64,192,10786,1,0,0:0:0:0:
448,192,10893,1,0,0:0:0:0:
320,192,11000,1,0,0:0:0:0:
192,192,11107,1,0,0:0:0:0:
64,192,11214,1,0,0:0:0:0:
320,192,11214,1,0,0:0:0:0:
448,192,11214,1,0,0:0:0:0:
192,192,11321,1,0,0:0:0:0:
320,192,11428,1,0,0:0:0:0:
64,192,11536,1,0,0:0:0:0:
192,192,11643,1,0,0:0:0:0:
320,192,11643,1,0,0:0:0:0:
448,192,11643,1,0,0:0:0:0:
64,192,11714,1,0,0:0:0:0:
192,192,11786,1,0,0:0:0:0:
320,192,11857,1,0,0:0:0:0:
448,192,11964,1,0,0:0:0:0:
320,192,12071,1,0,0:0:0:0:
192,192,12071,1,0,0:0:0:0:
64,192,12071,1,0,0:0:0:0:
448,192,12178,1,0,0:0:0:0:
320,192,12286,1,0,0:0:0:0:
192,192,12393,1,0,0:0:0:0:
64,192,12500,1,0,0:0:0:0:
320,192,12500,1,0,0:0:0:0:
448,192,12500,1,0,0:0:0:0:
192,192,12607,1,0,0:0:0:0:
448,192,12714,1,0,0:0:0:0:
320,192,12786,1,0,0:0:0:0:
192,192,12857,1,0,0:0:0:0:
64,192,12928,1,0,0:0:0:0:
320,192,12928,1,0,0:0:0:0:
448,192,12928,1,0,0:0:0:0:
192,192,13036,1,0,0:0:0:0:
64,192,13143,1,0,0:0:0:0:
192,192,13214,1,0,0:0:0:0:
320,192,13286,1,0,0:0:0:0:
64,192,13357,1,0,0:0:0:0:
448,192,13357,1,0,0:0:0:0:
192,192,13428,1,0,0:0:0:0:
320,192,13500,1,0,0:0:0:0:
448,192,13571,1,0,0:0:0:0:
64,192,13571,1,0,0:0:0:0:
192,192,13678,1,0,0:0:0:0:
320,192,13678,1,0,0:0:0:0:
64,192,13786,128,0,14643:0:0:0:0:
448,192,13786,128,0,14214:0:0:0:0:
320,192,14214,128,0,14857:0:0:0:0:
192,192,14643,128,0,15071:0:0:0:0:
448,192,14857,128,0,15071:0:0:0:0:
320,192,15071,128,0,15500:0:0:0:0:
64,192,15071,128,0,15286:0:0:0:0:
448,192,15286,128,0,15500:0:0:0:0:
192,192,15500,1,0,0:0:0:0:
64,192,15500,1,0,0:0:0:0:
320,192,15607,1,0,0:0:0:0:
448,192,15607,1,0,0:0:0:0:
192,192,15714,1,0,0:0:0:0:
64,192,15714,1,0,0:0:0:0:
448,192,15821,1,0,0:0:0:0:
320,192,15928,1,0,0:0:0:0:
64,192,15928,1,0,0:0:0:0:
192,192,16036,1,0,0:0:0:0:
448,192,16036,1,0,0:0:0:0:
64,192,16143,128,0,16357:0:0:0:0:
192,192,16357,1,0,0:0:0:0:
320,192,16357,1,0,0:0:0:0:
448,192,16464,1,0,0:0:0:0:
64,192,16464,1,0,0:0:0:0:
192,192,16571,1,0,0:0:0:0:
320,192,16571,1,0,0:0:0:0:
448,192,16678,1,0,0:0:0:0:
64,192,16678,1,0,0:0:0:0:
320,192,16786,128,0,17000:0:0:0:0:
64,192,17000,128,0,17214:0:0:0:0:
320,192,17214,1,0,0:0:0:0:
448,192,17214,1,0,0:0:0:0:
192,192,17321,1,0,0:0:0:0:
64,192,17321,1,0,0:0:0:0:
448,192,17428,1,0,0:0:0:0:
320,192,17428,1,0,0:0:0:0:
64,192,17536,1,0,0:0:0:0:
192,192,17643,1,0,0:0:0:0:
320,192,17643,1,0,0:0:0:0:
448,192,17750,1,0,0:0:0:0:
64,192,17750,1,0,0:0:0:0:
192,192,17857,1,0,0:0:0:0:
320,192,17857,1,0,0:0:0:0:
448,192,17964,1,0,0:0:0:0:
320,192,18071,1,0,0:0:0:0:
64,192,18071,1,0,0:0:0:0:
192,192,18178,1,0,0:0:0:0:
448,192,18178,1,0,0:0:0:0:
320,192,18286,1,0,0:0:0:0:
64,192,18286,1,0,0:0:0:0:
192,192,18393,1,0,0:0:0:0:
448,192,18500,128,0,18714:0:0:0:0:
192,192,18714,128,0,18928:0:0:0:0:
320,192,18928,1,0,0:0:0:0:
448,192,18928,1,0,0:0:0:0:
192,192,19036,1,0,0:0:0:0:
64,192,19036,1,0,0:0:0:0:
320,192,19143,1,0,0:0:0:0:
448,192,19143,1,0,0:0:0:0:
64,192,19250,1,0,0:0:0:0:
192,192,19357,1,0,0:0:0:0:
448,192,19357,1,0,0:0:0:0:
320,192,19464,1,0,0:0:0:0:
64,192,19464,1,0,0:0:0:0:
192,192,19571,1,0,0:0:0:0:
448,192,19571,1,0,0:0:0:0:
320,192,19678,1,0,0:0:0:0:
64,192,19786,1,0,0:0:0:0:
448,192,19786,1,0,0:0:0:0:
320,192,19893,1,0,0:0:0:0:
192,192,19893,1,0,0:0:0:0:
64,192,20000,1,0,0:0:0:0:
448,192,20000,1,0,0:0:0:0:
320,192,20107,1,0,0:0:0:0:
448,192,20214,128,0,20428:0:0:0:0:
64,192,20428,128,0,20643:0:0:0:0:
192,192,20643,1,0,0:0:0:0:
320,192,20643,128,0,21071:0:0:0:0:
448,192,20857,128,0,21071:0:0:0:0:
192,192,21071,1,0,0:0:0:0:
64,192,21178,128,0,21500:0:0:0:0:
192,192,21500,1,0,0:0:0:0:
448,192,21500,1,0,0:0:0:0:
320,192,21607,1,0,0:0:0:0:
192,192,21714,1,0,0:0:0:0:
192,192,21821,1,0,0:0:0:0:
64,192,21928,1,0,0:0:0:0:
448,192,21928,1,0,0:0:0:0:
320,192,21928,1,0,0:0:0:0:
64,192,22143,1,0,0:0:0:0:
192,192,22143,1,0,0:0:0:0:
320,192,22143,1,0,0:0:0:0:
192,192,22357,5,0,0:0:0:0:
320,192,22357,1,0,0:0:0:0:
448,192,22357,1,0,0:0:0:0:
64,192,22464,1,0,0:0:0:0:
192,192,22571,1,0,0:0:0:0:
448,192,22678,1,0,0:0:0:0:
320,192,22786,1,0,0:0:0:0:
192,192,22786,1,0,0:0:0:0:
64,192,22786,1,0,0:0:0:0:
448,192,22893,1,0,0:0:0:0:
320,192,23000,1,0,0:0:0:0:
192,192,23107,1,0,0:0:0:0:
64,192,23214,1,0,0:0:0:0:
320,192,23214,1,0,0:0:0:0:
448,192,23214,1,0,0:0:0:0:
192,192,23321,1,0,0:0:0:0:
320,192,23428,1,0,0:0:0:0:
320,192,23536,1,0,0:0:0:0:
192,192,23643,1,0,0:0:0:0:
64,192,23643,1,0,0:0:0:0:
448,192,23643,1,0,0:0:0:0:
320,192,23750,1,0,0:0:0:0:
192,192,23857,1,0,0:0:0:0:
64,192,23964,1,0,0:0:0:0:
192,192,24071,1,0,0:0:0:0:
320,192,24071,1,0,0:0:0:0:
448,192,24071,1,0,0:0:0:0:
64,192,24178,1,0,0:0:0:0:
192,192,24286,1,0,0:0:0:0:
448,192,24393,1,0,0:0:0:0:
320,192,24500,1,0,0:0:0:0:
192,192,24500,1,0,0:0:0:0:
64,192,24500,1,0,0:0:0:0:
448,192,24607,1,0,0:0:0:0:
320,192,24714,1,0,0:0:0:0:
192,192,24821,1,0,0:0:0:0:
64,192,24928,1,0,0:0:0:0:
448,192,24928,1,0,0:0:0:0:
320,192,24928,1,0,0:0:0:0:
192,192,25036,1,0,0:0:0:0:
64,192,25143,1,0,0:0:0:0:
320,192,25250,1,0,0:0:0:0:
192,192,25357,1,0,0:0:0:0:
64,192,25357,1,0,0:0:0:0:
448,192,25357,1,0,0:0:0:0:
320,192,25464,1,0,0:0:0:0:
448,192,25571,1,0,0:0:0:0:
64,192,25678,1,0,0:0:0:0:
192,192,25786,1,0,0:0:0:0:
320,192,25786,1,0,0:0:0:0:
448,192,25786,1,0,0:0:0:0:
64,192,25893,1,0,0:0:0:0:
192,192,26000,1,0,0:0:0:0:
320,192,26107,1,0,0:0:0:0:
64,192,26214,1,0,0:0:0:0:
192,192,26214,1,0,0:0:0:0:
448,192,26214,1,0,0:0:0:0:
320,192,26321,1,0,0:0:0:0:
192,192,26428,1,0,0:0:0:0:
448,192,26536,1,0,0:0:0:0:
320,192,26643,1,0,0:0:0:0:
192,192,26643,1,0,0:0:0:0:
64,192,26643,1,0,0:0:0:0:
448,192,26750,1,0,0:0:0:0:
320,192,26857,1,0,0:0:0:0:
192,192,26964,1,0,0:0:0:0:
64,192,27071,1,0,0:0:0:0:
320,192,27071,1,0,0:0:0:0:
448,192,27071,1,0,0:0:0:0:
192,192,27178,1,0,0:0:0:0:
320,192,27286,1,0,0:0:0:0:
64,192,27393,1,0,0:0:0:0:
192,192,27500,1,0,0:0:0:0:
320,192,27500,1,0,0:0:0:0:
448,192,27500,1,0,0:0:0:0:
64,192,27607,1,0,0:0:0:0:
192,192,27714,1,0,0:0:0:0:
320,192,27821,1,0,0:0:0:0:
448,192,27928,1,0,0:0:0:0:
64,192,27928,1,0,0:0:0:0:
192,192,27928,1,0,0:0:0:0:
320,192,28036,128,0,28357:0:0:0:0:
192,192,28357,1,0,0:0:0:0:
64,192,28357,1,0,0:0:0:0:
192,192,28464,1,0,0:0:0:0:
320,192,28571,1,0,0:0:0:0:
448,192,28571,1,0,0:0:0:0:
320,192,28678,1,0,0:0:0:0:
64,192,28786,1,0,0:0:0:0:
192,192,28786,1,0,0:0:0:0:
448,192,28786,1,0,0:0:0:0:
192,192,29000,1,0,0:0:0:0:
320,192,29000,1,0,0:0:0:0:
192,192,29107,1,0,0:0:0:0:
320,192,29107,1,0,0:0:0:0:
448,192,29214,1,0,0:0:0:0:
64,192,29214,1,0,0:0:0:0:
192,192,29214,128,0,29428:0:0:0:0:
320,192,29428,128,0,29643:0:0:0:0:
64,192,29428,1,0,0:0:0:0:
448,192,29428,1,0,0:0:0:0:
448,192,29643,1,0,0:0:0:0:
64,192,29643,128,0,30071:0:0:0:0:
192,192,29750,1,0,0:0:0:0:
320,192,29857,1,0,0:0:0:0:
448,192,29964,1,0,0:0:0:0:
320,192,30071,1,0,0:0:0:0:
192,192,30071,1,0,0:0:0:0:
448,192,30178,1,0,0:0:0:0:
192,192,30286,1,0,0:0:0:0:
64,192,30286,1,0,0:0:0:0:
64,192,30393,1,0,0:0:0:0:
192,192,30393,1,0,0:0:0:0:
448,192,30500,1,0,0:0:0:0:
320,192,30500,128,0,30714:0:0:0:0:
64,192,30714,128,0,30928:0:0:0:0:
192,192,30714,1,0,0:0:0:0:
448,192,30928,1,0,0:0:0:0:
320,192,30928,1,0,0:0:0:0:
192,192,30928,1,0,0:0:0:0:
64,192,31036,1,0,0:0:0:0:
192,192,31143,1,0,0:0:0:0:
320,192,31143,1,0,0:0:0:0:
320,192,31250,1,0,0:0:0:0:
192,192,31250,1,0,0:0:0:0:
448,192,31357,1,0,0:0:0:0:
64,192,31357,128,0,31571:0:0:0:0:
448,192,31571,128,0,31786:0:0:0:0:
320,192,31571,1,0,0:0:0:0:
192,192,31786,1,0,0:0:0:0:
64,192,31786,1,0,0:0:0:0:
320,192,31786,1,0,0:0:0:0:
448,192,31893,1,0,0:0:0:0:
192,192,32000,1,0,0:0:0:0:
64,192,32000,1,0,0:0:0:0:
64,192,32107,1,0,0:0:0:0:
192,192,32107,1,0,0:0:0:0:
64,192,32214,1,0,0:0:0:0:
320,192,32214,128,0,32428:0:0:0:0:
64,192,32428,128,0,32643:0:0:0:0:
192,192,32428,1,0,0:0:0:0:
320,192,32643,1,0,0:0:0:0:
192,192,32643,128,0,32857:0:0:0:0:
448,192,32643,128,0,32857:0:0:0:0:
320,192,32857,128,0,33071:0:0:0:0:
64,192,32857,128,0,33071:0:0:0:0:
192,192,33071,1,0,0:0:0:0:
448,192,33071,1,0,0:0:0:0:
320,192,33178,1,0,0:0:0:0:
192,192,33286,1,0,0:0:0:0:
64,192,33286,128,0,33500:0:0:0:0:
320,192,33500,1,0,0:0:0:0:
448,192,33500,1,0,0:0:0:0:
192,192,33607,1,0,0:0:0:0:
64,192,33714,1,0,0:0:0:0:
448,192,33714,1,0,0:0:0:0:
320,192,33821,1,0,0:0:0:0:
192,192,33821,1,0,0:0:0:0:
64,192,33928,1,0,0:0:0:0:
448,192,33928,128,0,34143:0:0:0:0:
192,192,34143,128,0,34357:0:0:0:0:
320,192,34143,1,0,0:0:0:0:
448,192,34357,1,0,0:0:0:0:
320,192,34357,1,0,0:0:0:0:
64,192,34357,128,0,34571:0:0:0:0:
448,192,34571,128,0,34786:0:0:0:0:
320,192,34571,1,0,0:0:0:0:
192,192,34786,1,0,0:0:0:0:
64,192,34786,1,0,0:0:0:0:
320,192,34893,1,0,0:0:0:0:
448,192,35000,1,0,0:0:0:0:
192,192,35107,1,0,0:0:0:0:
320,192,35214,1,0,0:0:0:0:
64,192,35214,1,0,0:0:0:0:
448,192,35214,1,0,0:0:0:0:
192,192,35321,1,0,0:0:0:0:
448,192,35428,1,0,0:0:0:0:
320,192,35428,1,0,0:0:0:0:
320,192,35536,1,0,0:0:0:0:
448,192,35536,1,0,0:0:0:0:
192,192,35643,1,0,0:0:0:0:
64,192,35643,1,0,0:0:0:0:
320,192,35643,1,0,0:0:0:0:
448,192,35750,1,0,0:0:0:0:
192,192,35857,1,0,0:0:0:0:
64,192,35857,1,0,0:0:0:0:
320,192,35964,1,0,0:0:0:0:
448,192,36071,1,0,0:0:0:0:
64,192,36071,1,0,0:0:0:0:
192,192,36071,1,0,0:0:0:0:
64,192,36286,1,0,0:0:0:0:
192,192,36286,1,0,0:0:0:0:
448,192,36286,1,0,0:0:0:0:
448,192,36500,1,0,0:0:0:0:
320,192,36500,1,0,0:0:0:0:
64,192,36500,1,0,0:0:0:0:
192,192,36607,1,0,0:0:0:0:
448,192,36714,128,0,36928:0:0:0:0:
64,192,36714,1,0,0:0:0:0:
320,192,36928,1,0,0:0:0:0:
192,192,36928,1,0,0:0:0:0:
64,192,36928,1,0,0:0:0:0:
448,192,37036,1,0,0:0:0:0:
192,192,37143,1,0,0:0:0:0:
64,192,37143,1,0,0:0:0:0:
320,192,37250,1,0,0:0:0:0:
448,192,37250,1,0,0:0:0:0:
64,192,37357,1,0,0:0:0:0:
448,192,37357,1,0,0:0:0:0:
192,192,37357,128,0,37571:0:0:0:0:
64,192,37571,1,0,0:0:0:0:
320,192,37571,128,0,37786:0:0:0:0:
448,192,37786,1,0,0:0:0:0:
64,192,37786,1,0,0:0:0:0:
192,192,37786,1,0,0:0:0:0:
320,192,37893,1,0,0:0:0:0:
192,192,38000,1,0,0:0:0:0:
64,192,38000,1,0,0:0:0:0:
64,192,38107,1,0,0:0:0:0:
192,192,38107,1,0,0:0:0:0:
320,192,38214,1,0,0:0:0:0:
448,192,38214,1,0,0:0:0:0:
192,192,38214,1,0,0:0:0:0:
64,192,38321,1,0,0:0:0:0:
192,192,38428,128,0,38643:0:0:0:0:
320,192,38643,1,0,0:0:0:0:
448,192,38643,1,0,0:0:0:0:
64,192,38643,1,0,0:0:0:0:
192,192,38750,1,0,0:0:0:0:
320,192,38857,1,0,0:0:0:0:
448,192,38857,1,0,0:0:0:0:
64,192,38964,1,0,0:0:0:0:
192,192,39071,1,0,0:0:0:0:
320,192,39071,1,0,0:0:0:0:
448,192,39071,128,0,39286:0:0:0:0:
192,192,39286,1,0,0:0:0:0:
320,192,39286,1,0,0:0:0:0:
64,192,39286,128,0,39500:0:0:0:0:
192,192,39500,1,0,0:0:0:0:
320,192,39500,1,0,0:0:0:0:
448,192,39500,1,0,0:0:0:0:
64,192,39714,1,0,0:0:0:0:
320,192,39714,1,0,0:0:0:0:
448,192,39714,1,0,0:0:0:0:
64,192,39928,1,0,0:0:0:0:
192,192,39928,1,0,0:0:0:0:
448,192,39928,1,0,0:0:0:0:
320,192,40036,1,0,0:0:0:0:
64,192,40143,1,0,0:0:0:0:
192,192,40143,128,0,40357:0:0:0:0:
64,192,40357,1,0,0:0:0:0:
320,192,40357,1,0,0:0:0:0:
448,192,40357,1,0,0:0:0:0:
192,192,40464,1,0,0:0:0:0:
320,192,40571,1,0,0:0:0:0:
448,192,40571,1,0,0:0:0:0:
320,192,40678,1,0,0:0:0:0:
448,192,40678,1,0,0:0:0:0:
192,192,40786,1,0,0:0:0:0:
64,192,40786,1,0,0:0:0:0:
448,192,40786,128,0,41000:0:0:0:0:
192,192,41000,128,0,41214:0:0:0:0:
64,192,41000,1,0,0:0:0:0:
320,192,41214,1,0,0:0:0:0:
64,192,41214,1,0,0:0:0:0:
448,192,41214,1,0,0:0:0:0:
64,192,41428,1,0,0:0:0:0:
320,192,41428,1,0,0:0:0:0:
448,192,41428,1,0,0:0:0:0:
192,192,41643,1,0,0:0:0:0:
64,192,41643,1,0,0:0:0:0:
448,192,41643,1,0,0:0:0:0:
448,192,41857,1,0,0:0:0:0:
192,192,41857,1,0,0:0:0:0:
64,192,41857,1,0,0:0:0:0:
64,192,42071,1,0,0:0:0:0:
192,192,42125,1,0,0:0:0:0:
320,192,42178,1,0,0:0:0:0:
448,192,42232,1,0,0:0:0:0:
64,192,42286,1,0,0:0:0:0:
192,192,42339,1,0,0:0:0:0:
320,192,42393,1,0,0:0:0:0:
448,192,42446,1,0,0:0:0:0:
192,192,42500,1,0,0:0:0:0:
64,192,42571,1,0,0:0:0:0:
448,192,42643,1,0,0:0:0:0:
320,192,42714,1,0,0:0:0:0:
192,192,42786,1,0,0:0:0:0:
64,192,42857,1,0,0:0:0:0:
448,192,42928,1,0,0:0:0:0:
320,192,42928,1,0,0:0:0:0:
192,192,43036,1,0,0:0:0:0:
64,192,43143,1,0,0:0:0:0:
448,192,43143,1,0,0:0:0:0:
320,192,43250,1,0,0:0:0:0:
192,192,43357,1,0,0:0:0:0:
64,192,43357,1,0,0:0:0:0:
448,192,43464,1,0,0:0:0:0:
320,192,43571,1,0,0:0:0:0:
192,192,43571,1,0,0:0:0:0:
64,192,43678,1,0,0:0:0:0:
320,192,43786,1,0,0:0:0:0:
448,192,43786,1,0,0:0:0:0:
192,192,43893,1,0,0:0:0:0:
64,192,44000,1,0,0:0:0:0:
448,192,44000,1,0,0:0:0:0:
192,192,44107,1,0,0:0:0:0:
320,192,44214,1,0,0:0:0:0:
448,192,44214,1,0,0:0:0:0:
64,192,44321,1,0,0:0:0:0:
192,192,44428,1,0,0:0:0:0:
448,192,44536,1,0,0:0:0:0:
320,192,44643,1,0,0:0:0:0:
64,192,44643,1,0,0:0:0:0:
192,192,44750,1,0,0:0:0:0:
448,192,44857,1,0,0:0:0:0:
320,192,44857,1,0,0:0:0:0:
64,192,44964,1,0,0:0:0:0:
192,192,45071,1,0,0:0:0:0:
320,192,45071,1,0,0:0:0:0:
448,192,45178,1,0,0:0:0:0:
320,192,45286,1,0,0:0:0:0:
192,192,45393,1,0,0:0:0:0:
64,192,45500,1,0,0:0:0:0:
448,192,45500,1,0,0:0:0:0:
320,192,45607,1,0,0:0:0:0:
192,192,45714,1,0,0:0:0:0:
64,192,45714,1,0,0:0:0:0:
448,192,45821,1,0,0:0:0:0:
320,192,45928,1,0,0:0:0:0:
192,192,45928,1,0,0:0:0:0:
64,192,46036,1,0,0:0:0:0:
192,192,46143,1,0,0:0:0:0:
320,192,46250,1,0,0:0:0:0:
448,192,46357,1,0,0:0:0:0:
64,192,46357,1,0,0:0:0:0:
192,192,46464,1,0,0:0:0:0:
320,192,46571,1,0,0:0:0:0:
448,192,46571,1,0,0:0:0:0:
64,192,46678,1,0,0:0:0:0:
192,192,46786,1,0,0:0:0:0:
320,192,46786,1,0,0:0:0:0:
448,192,46893,1,0,0:0:0:0:
192,192,47000,1,0,0:0:0:0:
64,192,47000,1,0,0:0:0:0:
320,192,47107,1,0,0:0:0:0:
448,192,47214,1,0,0:0:0:0:
64,192,47214,1,0,0:0:0:0:
192,192,47321,1,0,0:0:0:0:
320,192,47428,1,0,0:0:0:0:
448,192,47428,1,0,0:0:0:0:
64,192,47536,1,0,0:0:0:0:
192,192,47643,1,0,0:0:0:0:
320,192,47643,1,0,0:0:0:0:
448,192,47750,1,0,0:0:0:0:
320,192,47857,1,0,0:0:0:0:
64,192,47857,1,0,0:0:0:0:
192,192,47964,1,0,0:0:0:0:
64,192,48071,1,0,0:0:0:0:
448,192,48071,1,0,0:0:0:0:
320,192,48178,1,0,0:0:0:0:
192,192,48286,1,0,0:0:0:0:
64,192,48286,1,0,0:0:0:0:
448,192,48393,1,0,0:0:0:0:
320,192,48500,1,0,0:0:0:0:
192,192,48500,1,0,0:0:0:0:
64,192,48607,1,0,0:0:0:0:
320,192,48714,1,0,0:0:0:0:
448,192,48714,1,0,0:0:0:0:
192,192,48821,1,0,0:0:0:0:
64,192,48928,1,0,0:0:0:0:
448,192,48928,1,0,0:0:0:0:
320,192,49000,1,0,0:0:0:0:
192,192,49071,1,0,0:0:0:0:
64,192,49143,1,0,0:0:0:0:
448,192,49214,1,0,0:0:0:0:
320,192,49286,1,0,0:0:0:0:
192,192,49357,1,0,0:0:0:0:
64,192,49428,1,0,0:0:0:0:
448,192,49500,1,0,0:0:0:0:
320,192,49571,1,0,0:0:0:0:
192,192,49643,1,0,0:0:0:0:
64,192,49714,1,0,0:0:0:0:
448,192,49786,1,0,0:0:0:0:
320,192,49786,1,0,0:0:0:0:
192,192,49893,1,0,0:0:0:0:
64,192,49893,1,0,0:0:0:0:
320,192,50000,1,0,0:0:0:0:
448,192,50000,1,0,0:0:0:0:
64,192,50107,1,0,0:0:0:0:
192,192,50214,1,0,0:0:0:0:
320,192,50214,1,0,0:0:0:0:
448,192,50321,1,0,0:0:0:0:
64,192,50428,1,0,0:0:0:0:
192,192,50428,1,0,0:0:0:0:
448,192,50536,1,0,0:0:0:0:
320,192,50643,1,0,0:0:0:0:
192,192,50643,1,0,0:0:0:0:
64,192,50750,1,0,0:0:0:0:
448,192,50750,1,0,0:0:0:0:
320,192,50857,1,0,0:0:0:0:
192,192,50857,1,0,0:0:0:0:
448,192,50964,1,0,0:0:0:0:
64,192,50964,1,0,0:0:0:0:
192,192,51071,1,0,0:0:0:0:
320,192,51071,1,0,0:0:0:0:
448,192,51178,1,0,0:0:0:0:
192,192,51286,1,0,0:0:0:0:
64,192,51286,1,0,0:0:0:0:
320,192,51393,1,0,0:0:0:0:
448,192,51500,1,0,0:0:0:0:
64,192,51500,1,0,0:0:0:0:
192,192,51607,1,0,0:0:0:0:
320,192,51714,1,0,0:0:0:0:
448,192,51714,1,0,0:0:0:0:
64,192,51821,1,0,0:0:0:0:
192,192,51821,1,0,0:0:0:0:
320,192,51928,1,0,0:0:0:0:
448,192,51928,1,0,0:0:0:0:
64,192,52036,1,0,0:0:0:0:
192,192,52143,1,0,0:0:0:0:
320,192,52143,1,0,0:0:0:0:
448,192,52250,1,0,0:0:0:0:
192,192,52357,1,0,0:0:0:0:
64,192,52357,1,0,0:0:0:0:
320,192,52464,1,0,0:0:0:0:
448,192,52464,1,0,0:0:0:0:
192,192,52571,1,0,0:0:0:0:
64,192,52571,1,0,0:0:0:0:
320,192,52678,1,0,0:0:0:0:
448,192,52678,1,0,0:0:0:0:
192,192,52786,1,0,0:0:0:0:
64,192,52786,1,0,0:0:0:0:
448,192,52893,1,0,0:0:0:0:
320,192,53000,1,0,0:0:0:0:
64,192,53000,1,0,0:0:0:0:
192,192,53107,1,0,0:0:0:0:
448,192,53214,1,0,0:0:0:0:
320,192,53214,1,0,0:0:0:0:
64,192,53321,1,0,0:0:0:0:
192,192,53428,1,0,0:0:0:0:
320,192,53428,1,0,0:0:0:0:
448,192,53536,1,0,0:0:0:0:
64,192,53536,1,0,0:0:0:0:
320,192,53643,1,0,0:0:0:0:
192,192,53643,1,0,0:0:0:0:
448,192,53750,1,0,0:0:0:0:
192,192,53857,1,0,0:0:0:0:
64,192,53857,1,0,0:0:0:0:
320,192,53964,1,0,0:0:0:0:
448,192,54071,1,0,0:0:0:0:
64,192,54071,1,0,0:0:0:0:
192,192,54178,1,0,0:0:0:0:
320,192,54178,1,0,0:0:0:0:
64,192,54286,1,0,0:0:0:0:
448,192,54286,1,0,0:0:0:0:
320,192,54393,1,0,0:0:0:0:
192,192,54393,1,0,0:0:0:0:
64,192,54500,1,0,0:0:0:0:
448,192,54500,1,0,0:0:0:0:
192,192,54607,1,0,0:0:0:0:
320,192,54714,1,0,0:0:0:0:
448,192,54714,128,0,54821:0:0:0:0:
192,192,54821,128,0,54928:0:0:0:0:
64,192,54928,128,0,55786:0:0:0:0:
448,192,54928,128,0,55357:0:0:0:0:
320,192,55357,128,0,56000:0:0:0:0:
192,192,55786,128,0,56214:0:0:0:0:
448,192,56000,128,0,56214:0:0:0:0:
320,192,56214,128,0,56643:0:0:0:0:
64,192,56214,128,0,56428:0:0:0:0:
448,192,56428,128,0,56643:0:0:0:0:
192,192,56428,1,0,0:0:0:0:
64,192,56643,1,0,0:0:0:0:
192,192,56643,1,0,0:0:0:0:
64,192,56750,1,0,0:0:0:0:
320,192,56857,1,0,0:0:0:0:
448,192,56857,1,0,0:0:0:0:
192,192,56964,1,0,0:0:0:0:
64,192,57071,1,0,0:0:0:0:
448,192,57071,1,0,0:0:0:0:
320,192,57178,1,0,0:0:0:0:
192,192,57286,1,0,0:0:0:0:
64,192,57286,1,0,0:0:0:0:
448,192,57393,1,0,0:0:0:0:
320,192,57500,1,0,0:0:0:0:
192,192,57500,1,0,0:0:0:0:
64,192,57500,1,0,0:0:0:0:
448,192,57607,1,0,0:0:0:0:
320,192,57714,1,0,0:0:0:0:
192,192,57714,1,0,0:0:0:0:
64,192,57714,1,0,0:0:0:0:
448,192,57821,1,0,0:0:0:0:
320,192,57928,1,0,0:0:0:0:
192,192,57928,1,0,0:0:0:0:
64,192,57928,1,0,0:0:0:0:
448,192,58036,1,0,0:0:0:0:
192,192,58143,1,0,0:0:0:0:
64,192,58143,1,0,0:0:0:0:
320,192,58250,1,0,0:0:0:0:
448,192,58357,1,0,0:0:0:0:
64,192,58357,1,0,0:0:0:0:
192,192,58357,1,0,0:0:0:0:
320,192,58464,1,0,0:0:0:0:
64,192,58571,1,0,0:0:0:0:
192,192,58571,1,0,0:0:0:0:
448,192,58571,1,0,0:0:0:0:
320,192,58678,1,0,0:0:0:0:
64,192,58786,1,0,0:0:0:0:
192,192,58786,1,0,0:0:0:0:
448,192,58786,1,0,0:0:0:0:
320,192,58893,1,0,0:0:0:0:
448,192,59000,1,0,0:0:0:0:
64,192,59000,1,0,0:0:0:0:
192,192,59107,1,0,0:0:0:0:
320,192,59214,1,0,0:0:0:0:
448,192,59214,1,0,0:0:0:0:
64,192,59214,1,0,0:0:0:0:
192,192,59321,1,0,0:0:0:0:
320,192,59428,1,0,0:0:0:0:
448,192,59428,1,0,0:0:0:0:
64,192,59428,1,0,0:0:0:0:
192,192,59536,1,0,0:0:0:0:
320,192,59643,1,0,0:0:0:0:
448,192,59643,1,0,0:0:0:0:
64,192,59643,1,0,0:0:0:0:
192,192,59750,1,0,0:0:0:0:
320,192,59857,1,0,0:0:0:0:
448,192,59857,1,0,0:0:0:0:
320,192,59964,1,0,0:0:0:0:
192,192,60071,1,0,0:0:0:0:
64,192,60071,1,0,0:0:0:0:
448,192,60178,1,0,0:0:0:0:
320,192,60286,1,0,0:0:0:0:
64,192,60286,1,0,0:0:0:0:
192,192,60393,1,0,0:0:0:0:
320,192,60500,1,0,0:0:0:0:
448,192,60500,1,0,0:0:0:0:
64,192,60607,1,0,0:0:0:0:
192,192,60714,1,0,0:0:0:0:
320,192,60714,1,0,0:0:0:0:
448,192,60821,1,0,0:0:0:0:
192,192,60928,1,0,0:0:0:0:
64,192,60928,1,0,0:0:0:0:
320,192,61036,1,0,0:0:0:0:
448,192,61143,1,0,0:0:0:0:
64,192,61143,1,0,0:0:0:0:
192,192,61250,1,0,0:0:0:0:
448,192,61357,1,0,0:0:0:0:
320,192,61357,1,0,0:0:0:0:
64,192,61464,1,0,0:0:0:0:
448,192,61571,1,0,0:0:0:0:
192,192,61571,1,0,0:0:0:0:
320,192,61571,1,0,0:0:0:0:
64,192,61678,1,0,0:0:0:0:
192,192,61786,1,0,0:0:0:0:
448,192,61786,1,0,0:0:0:0:
320,192,61893,1,0,0:0:0:0:
192,192,62000,1,0,0:0:0:0:
64,192,62000,1,0,0:0:0:0:
448,192,62107,1,0,0:0:0:0:
320,192,62214,1,0,0:0:0:0:
192,192,62214,1,0,0:0:0:0:
64,192,62321,1,0,0:0:0:0:
320,192,62428,1,0,0:0:0:0:
448,192,62428,1,0,0:0:0:0:
192,192,62536,1,0,0:0:0:0:
64,192,62643,1,0,0:0:0:0:
448,192,62696,1,0,0:0:0:0:
320,192,62750,1,0,0:0:0:0:
192,192,62803,1,0,0:0:0:0:
64,192,62857,1,0,0:0:0:0:
448,192,62911,1,0,0:0:0:0:
320,192,62964,1,0,0:0:0:0:
192,192,63018,1,0,0:0:0:0:
64,192,63071,1,0,0:0:0:0:
448,192,63071,1,0,0:0:0:0:
448,192,63178,1,0,0:0:0:0:
320,192,63286,1,0,0:0:0:0:
192,192,63286,1,0,0:0:0:0:
192,192,63393,1,0,0:0:0:0:
64,192,63500,1,0,0:0:0:0:
320,192,63500,1,0,0:0:0:0:
448,192,63500,1,0,0:0:0:0:
192,192,63607,1,0,0:0:0:0:
320,192,63714,1,0,0:0:0:0:
448,192,63714,1,0,0:0:0:0:
64,192,63821,1,0,0:0:0:0:
192,192,63928,1,0,0:0:0:0:
320,192,63928,1,0,0:0:0:0:
448,192,64036,1,0,0:0:0:0:
320,192,64143,1,0,0:0:0:0:
64,192,64143,1,0,0:0:0:0:
192,192,64250,1,0,0:0:0:0:
64,192,64357,1,0,0:0:0:0:
320,192,64357,1,0,0:0:0:0:
448,192,64357,1,0,0:0:0:0:
192,192,64464,1,0,0:0:0:0:
64,192,64571,1,0,0:0:0:0:
320,192,64571,1,0,0:0:0:0:
448,192,64571,1,0,0:0:0:0:
192,192,64678,1,0,0:0:0:0:
64,192,64786,1,0,0:0:0:0:
320,192,64786,1,0,0:0:0:0:
448,192,64786,1,0,0:0:0:0:
192,192,64893,1,0,0:0:0:0:
320,192,65000,1,0,0:0:0:0:
448,192,65000,1,0,0:0:0:0:
64,192,65107,1,0,0:0:0:0:
192,192,65214,1,0,0:0:0:0:
320,192,65214,1,0,0:0:0:0:
448,192,65214,1,0,0:0:0:0:
64,192,65321,1,0,0:0:0:0:
192,192,65428,1,0,0:0:0:0:
320,192,65428,1,0,0:0:0:0:
448,192,65428,1,0,0:0:0:0:
64,192,65536,1,0,0:0:0:0:
192,192,65643,1,0,0:0:0:0:
320,192,65643,1,0,0:0:0:0:
448,192,65643,1,0,0:0:0:0:
64,192,65750,1,0,0:0:0:0:
192,192,65857,1,0,0:0:0:0:
320,192,65857,1,0,0:0:0:0:
448,192,65964,1,0,0:0:0:0:
320,192,66071,1,0,0:0:0:0:
192,192,66071,1,0,0:0:0:0:
64,192,66071,1,0,0:0:0:0:
448,192,66178,1,0,0:0:0:0:
320,192,66286,1,0,0:0:0:0:
192,192,66286,1,0,0:0:0:0:
64,192,66286,1,0,0:0:0:0:
448,192,66393,1,0,0:0:0:0:
320,192,66500,1,0,0:0:0:0:
192,192,66500,1,0,0:0:0:0:
64,192,66500,1,0,0:0:0:0:
448,192,66607,1,0,0:0:0:0:
320,192,66714,1,0,0:0:0:0:
64,192,66714,1,0,0:0:0:0:
64,192,66821,1,0,0:0:0:0:
192,192,66928,1,0,0:0:0:0:
448,192,66928,1,0,0:0:0:0:
320,192,67036,1,0,0:0:0:0:
64,192,67143,1,0,0:0:0:0:
192,192,67143,1,0,0:0:0:0:
448,192,67250,1,0,0:0:0:0:
320,192,67357,1,0,0:0:0:0:
192,192,67357,1,0,0:0:0:0:
64,192,67464,1,0,0:0:0:0:
320,192,67571,1,0,0:0:0:0:
448,192,67571,1,0,0:0:0:0:
192,192,67678,1,0,0:0:0:0:
64,192,67786,1,0,0:0:0:0:
448,192,67786,1,0,0:0:0:0:
320,192,67893,1,0,0:0:0:0:
192,192,68000,1,0,0:0:0:0:
64,192,68000,1,0,0:0:0:0:
448,192,68107,1,0,0:0:0:0:
320,192,68214,1,0,0:0:0:0:
192,192,68214,1,0,0:0:0:0:
64,192,68321,1,0,0:0:0:0:
192,192,68428,1,0,0:0:0:0:
320,192,68428,1,0,0:0:0:0:
448,192,68428,1,0,0:0:0:0:
64,192,68536,1,0,0:0:0:0:
192,192,68643,1,0,0:0:0:0:
448,192,68643,1,0,0:0:0:0:
320,192,68750,1,0,0:0:0:0:
64,192,68857,1,0,0:0:0:0:
192,192,68857,1,0,0:0:0:0:
448,192,68964,1,0,0:0:0:0:
320,192,69071,1,0,0:0:0:0:
64,192,69071,1,0,0:0:0:0:
192,192,69178,1,0,0:0:0:0:
320,192,69286,1,0,0:0:0:0:
448,192,69286,1,0,0:0:0:0:
64,192,69393,1,0,0:0:0:0:
192,192,69500,1,0,0:0:0:0:
320,192,69553,1,0,0:0:0:0:
448,192,69607,1,0,0:0:0:0:
64,192,69661,1,0,0:0:0:0:
192,192,69714,1,0,0:0:0:0:
320,192,69768,1,0,0:0:0:0:
448,192,69821,1,0,0:0:0:0:
64,192,69875,1,0,0:0:0:0:
320,192,69928,1,0,0:0:0:0:
192,192,69928,1,0,0:0:0:0:
320,192,70143,1,0,0:0:0:0:
448,192,70143,1,0,0:0:0:0:
320,192,70250,1,0,0:0:0:0:
192,192,70357,1,0,0:0:0:0:
64,192,70357,1,0,0:0:0:0:
448,192,70357,1,0,0:0:0:0:
64,192,70571,1,0,0:0:0:0:
320,192,70571,1,0,0:0:0:0:
448,192,70571,1,0,0:0:0:0:
64,192,70786,1,0,0:0:0:0:
192,192,70786,1,0,0:0:0:0:
448,192,70786,1,0,0:0:0:0:
320,192,70893,1,0,0:0:0:0:
192,192,71000,1,0,0:0:0:0:
64,192,71107,1,0,0:0:0:0:
192,192,71214,1,0,0:0:0:0:
320,192,71214,1,0,0:0:0:0:
448,192,71214,1,0,0:0:0:0:
192,192,71428,1,0,0:0:0:0:
320,192,71428,1,0,0:0:0:0:
64,192,71428,1,0,0:0:0:0:
192,192,71643,1,0,0:0:0:0:
320,192,71643,1,0,0:0:0:0:
448,192,71643,1,0,0:0:0:0:
64,192,71750,1,0,0:0:0:0:
192,192,71857,1,0,0:0:0:0:
448,192,71964,1,0,0:0:0:0:
320,192,72071,1,0,0:0:0:0:
192,192,72071,1,0,0:0:0:0:
64,192,72071,1,0,0:0:0:0:
64,192,72286,1,0,0:0:0:0:
320,192,72286,1,0,0:0:0:0:
448,192,72286,1,0,0:0:0:0:
192,192,72500,1,0,0:0:0:0:
64,192,72500,1,0,0:0:0:0:
448,192,72500,1,0,0:0:0:0:
320,192,72607,1,0,0:0:0:0:
320,192,72714,1,0,0:0:0:0:
192,192,72821,1,0,0:0:0:0:
64,192,72928,1,0,0:0:0:0:
320,192,72928,1,0,0:0:0:0:
448,192,72928,1,0,0:0:0:0:
64,192,73143,1,0,0:0:0:0:
192,192,73143,1,0,0:0:0:0:
448,192,73143,1,0,0:0:0:0:
192,192,73357,1,0,0:0:0:0:
320,192,73357,1,0,0:0:0:0:
448,192,73357,1,0,0:0:0:0:
64,192,73464,1,0,0:0:0:0:
192,192,73571,1,0,0:0:0:0:
448,192,73678,1,0,0:0:0:0:
320,192,73786,1,0,0:0:0:0:
192,192,73786,1,0,0:0:0:0:
64,192,73786,1,0,0:0:0:0:
448,192,74000,1,0,0:0:0:0:
320,192,74000,1,0,0:0:0:0:
64,192,74214,1,0,0:0:0:0:
192,192,74214,1,0,0:0:0:0:
448,192,74214,1,0,0:0:0:0:
320,192,74428,1,0,0:0:0:0:
192,192,74428,1,0,0:0:0:0:
64,192,74643,1,0,0:0:0:0:
320,192,74643,1,0,0:0:0:0:
448,192,74643,1,0,0:0:0:0:
64,192,74857,1,0,0:0:0:0:
192,192,74857,1,0,0:0:0:0:
320,192,75071,1,0,0:0:0:0:
448,192,75071,1,0,0:0:0:0:
192,192,75071,1,0,0:0:0:0:
64,192,75286,1,0,0:0:0:0:
448,192,75286,1,0,0:0:0:0:
192,192,75500,1,0,0:0:0:0:
320,192,75500,1,0,0:0:0:0:
64,192,75500,1,0,0:0:0:0:
448,192,75714,1,0,0:0:0:0:
320,192,75714,1,0,0:0:0:0:
64,192,75928,1,0,0:0:0:0:
192,192,75928,1,0,0:0:0:0:
448,192,75928,1,0,0:0:0:0:
320,192,76143,1,0,0:0:0:0:
192,192,76143,1,0,0:0:0:0:
64,192,76357,1,0,0:0:0:0:
192,192,76393,1,0,0:0:0:0:
320,192,76428,1,0,0:0:0:0:
448,192,76464,1,0,0:0:0:0:
64,192,76500,1,0,0:0:0:0:
192,192,76536,1,0,0:0:0:0:
320,192,76571,1,0,0:0:0:0:
448,192,76607,1,0,0:0:0:0:
64,192,76643,1,0,0:0:0:0:
192,192,76678,1,0,0:0:0:0:
320,192,76714,1,0,0:0:0:0:
448,192,76750,1,0,0:0:0:0:
64,192,76786,1,0,0:0:0:0:
192,192,76786,1,0,0:0:0:0:
192,192,76893,1,0,0:0:0:0:
448,192,77000,1,0,0:0:0:0:
320,192,77000,1,0,0:0:0:0:
320,192,77107,1,0,0:0:0:0:
64,192,77214,1,0,0:0:0:0:
192,192,77214,1,0,0:0:0:0:
448,192,77214,1,0,0:0:0:0:
320,192,77321,1,0,0:0:0:0:
192,192,77428,1,0,0:0:0:0:
64,192,77428,1,0,0:0:0:0:
448,192,77536,1,0,0:0:0:0:
320,192,77643,1,0,0:0:0:0:
192,192,77643,1,0,0:0:0:0:
64,192,77643,1,0,0:0:0:0:
448,192,77750,1,0,0:0:0:0:
320,192,77857,1,0,0:0:0:0:
64,192,77857,1,0,0:0:0:0:
192,192,77964,1,0,0:0:0:0:
320,192,78071,1,0,0:0:0:0:
448,192,78071,1,0,0:0:0:0:
64,192,78071,1,0,0:0:0:0:
192,192,78178,1,0,0:0:0:0:
320,192,78286,1,0,0:0:0:0:
448,192,78286,1,0,0:0:0:0:
64,192,78393,1,0,0:0:0:0:
192,192,78500,1,0,0:0:0:0:
320,192,78500,1,0,0:0:0:0:
448,192,78500,1,0,0:0:0:0:
64,192,78607,1,0,0:0:0:0:
320,192,78714,1,0,0:0:0:0:
448,192,78821,1,0,0:0:0:0:
320,192,78928,1,0,0:0:0:0:
192,192,78928,1,0,0:0:0:0:
64,192,78928,1,0,0:0:0:0:
448,192,79036,1,0,0:0:0:0:
320,192,79143,1,0,0:0:0:0:
64,192,79143,1,0,0:0:0:0:
192,192,79250,1,0,0:0:0:0:
320,192,79357,1,0,0:0:0:0:
448,192,79357,1,0,0:0:0:0:
64,192,79357,1,0,0:0:0:0:
192,192,79464,1,0,0:0:0:0:
320,192,79571,1,0,0:0:0:0:
64,192,79678,1,0,0:0:0:0:
192,192,79786,1,0,0:0:0:0:
320,192,79786,1,0,0:0:0:0:
448,192,79786,1,0,0:0:0:0:
64,192,79893,1,0,0:0:0:0:
192,192,80000,1,0,0:0:0:0:
448,192,80000,1,0,0:0:0:0:
320,192,80107,1,0,0:0:0:0:
192,192,80214,1,0,0:0:0:0:
64,192,80214,1,0,0:0:0:0:
448,192,80321,1,0,0:0:0:0:
320,192,80428,1,0,0:0:0:0:
64,192,80536,1,0,0:0:0:0:
192,192,80643,1,0,0:0:0:0:
320,192,80643,1,0,0:0:0:0:
448,192,80643,1,0,0:0:0:0:
64,192,80750,1,0,0:0:0:0:
192,192,80857,1,0,0:0:0:0:
448,192,80857,1,0,0:0:0:0:
320,192,80964,1,0,0:0:0:0:
192,192,81071,1,0,0:0:0:0:
64,192,81071,1,0,0:0:0:0:
448,192,81071,1,0,0:0:0:0:
320,192,81178,1,0,0:0:0:0:
192,192,81286,1,0,0:0:0:0:
64,192,81286,1,0,0:0:0:0:
448,192,81393,1,0,0:0:0:0:
320,192,81500,1,0,0:0:0:0:
192,192,81500,1,0,0:0:0:0:
64,192,81500,1,0,0:0:0:0:
448,192,81607,1,0,0:0:0:0:
192,192,81714,1,0,0:0:0:0:
64,192,81714,1,0,0:0:0:0:
320,192,81821,1,0,0:0:0:0:
448,192,81928,1,0,0:0:0:0:
64,192,81928,1,0,0:0:0:0:
192,192,81928,1,0,0:0:0:0:
320,192,82036,1,0,0:0:0:0:
448,192,82143,1,0,0:0:0:0:
64,192,82143,1,0,0:0:0:0:
192,192,82250,1,0,0:0:0:0:
320,192,82357,1,0,0:0:0:0:
448,192,82357,1,0,0:0:0:0:
64,192,82357,1,0,0:0:0:0:
192,192,82464,1,0,0:0:0:0:
64,192,82571,1,0,0:0:0:0:
448,192,82571,1,0,0:0:0:0:
320,192,82678,1,0,0:0:0:0:
192,192,82786,1,0,0:0:0:0:
64,192,82786,1,0,0:0:0:0:
448,192,82786,1,0,0:0:0:0:
320,192,82893,1,0,0:0:0:0:
192,192,83000,1,0,0:0:0:0:
64,192,83000,1,0,0:0:0:0:
448,192,83107,1,0,0:0:0:0:
320,192,83214,1,0,0:0:0:0:
192,192,83250,1,0,0:0:0:0:
64,192,83286,1,0,0:0:0:0:
448,192,83321,1,0,0:0:0:0:
320,192,83357,1,0,0:0:0:0:
192,192,83393,1,0,0:0:0:0:
64,192,83428,1,0,0:0:0:0:
448,192,83464,1,0,0:0:0:0:
320,192,83500,1,0,0:0:0:0:
192,192,83536,1,0,0:0:0:0:
64,192,83571,1,0,0:0:0:0:
448,192,83607,1,0,0:0:0:0:
192,192,83643,1,0,0:0:0:0:
320,192,83643,1,0,0:0:0:0:
64,192,83696,1,0,0:0:0:0:
192,192,83750,1,0,0:0:0:0:
320,192,83803,1,0,0:0:0:0:
448,192,83857,1,0,0:0:0:0:
64,192,83911,1,0,0:0:0:0:
192,192,83964,1,0,0:0:0:0:
320,192,84018,1,0,0:0:0:0:
192,192,84071,5,0,0:0:0:0:
448,192,84071,1,0,0:0:0:0:
64,192,84071,1,0,0:0:0:0:
320,192,84178,1,0,0:0:0:0:
192,192,84286,1,0,0:0:0:0:
64,192,84286,1,0,0:0:0:0:
448,192,84393,1,0,0:0:0:0:
320,192,84500,1,0,0:0:0:0:
192,192,84500,1,0,0:0:0:0:
64,192,84607,1,0,0:0:0:0:
192,192,84714,1,0,0:0:0:0:
448,192,84714,1,0,0:0:0:0:
320,192,84821,1,0,0:0:0:0:
64,192,84928,1,0,0:0:0:0:
448,192,84928,1,0,0:0:0:0:
192,192,84928,1,0,0:0:0:0:
320,192,85143,1,0,0:0:0:0:
448,192,85143,1,0,0:0:0:0:
192,192,85143,1,0,0:0:0:0:
192,192,85357,1,0,0:0:0:0:
320,192,85357,1,0,0:0:0:0:
64,192,85357,1,0,0:0:0:0:
448,192,85464,1,0,0:0:0:0:
192,192,85571,1,0,0:0:0:0:
64,192,85571,1,0,0:0:0:0:
64,192,85678,1,0,0:0:0:0:
192,192,85786,1,0,0:0:0:0:
320,192,85786,1,0,0:0:0:0:
448,192,85786,1,0,0:0:0:0:
192,192,86000,1,0,0:0:0:0:
448,192,86000,1,0,0:0:0:0:
64,192,86000,1,0,0:0:0:0:
64,192,86214,1,0,0:0:0:0:
448,192,86214,1,0,0:0:0:0:
320,192,86214,1,0,0:0:0:0:
192,192,86321,1,0,0:0:0:0:
320,192,86428,1,0,0:0:0:0:
448,192,86428,1,0,0:0:0:0:
64,192,86536,1,0,0:0:0:0:
192,192,86643,1,0,0:0:0:0:
320,192,86643,1,0,0:0:0:0:
448,192,86643,1,0,0:0:0:0:
64,192,86857,1,0,0:0:0:0:
192,192,86857,1,0,0:0:0:0:
448,192,86857,1,0,0:0:0:0:
320,192,87071,1,0,0:0:0:0:
192,192,87071,1,0,0:0:0:0:
64,192,87071,1,0,0:0:0:0:
448,192,87178,1,0,0:0:0:0:
320,192,87286,1,0,0:0:0:0:
192,192,87286,1,0,0:0:0:0:
192,192,87393,1,0,0:0:0:0:
64,192,87500,1,0,0:0:0:0:
320,192,87500,1,0,0:0:0:0:
448,192,87500,1,0,0:0:0:0:
192,192,87607,1,0,0:0:0:0:
448,192,87714,1,0,0:0:0:0:
320,192,87714,1,0,0:0:0:0:
64,192,87821,1,0,0:0:0:0:
192,192,87928,1,0,0:0:0:0:
320,192,87928,1,0,0:0:0:0:
448,192,88036,1,0,0:0:0:0:
320,192,88143,1,0,0:0:0:0:
64,192,88143,1,0,0:0:0:0:
192,192,88250,1,0,0:0:0:0:
448,192,88357,1,0,0:0:0:0:
64,192,88357,1,0,0:0:0:0:
320,192,88357,1,0,0:0:0:0:
192,192,88571,1,0,0:0:0:0:
64,192,88571,1,0,0:0:0:0:
320,192,88571,1,0,0:0:0:0:
320,192,88786,1,0,0:0:0:0:
192,192,88786,1,0,0:0:0:0:
448,192,88786,1,0,0:0:0:0:
64,192,88893,1,0,0:0:0:0:
192,192,89000,1,0,0:0:0:0:
320,192,89000,1,0,0:0:0:0:
320,192,89107,1,0,0:0:0:0:
448,192,89214,1,0,0:0:0:0:
192,192,89214,1,0,0:0:0:0:
64,192,89214,1,0,0:0:0:0:
320,192,89428,1,0,0:0:0:0:
192,192,89428,1,0,0:0:0:0:
64,192,89428,1,0,0:0:0:0:
320,192,89643,1,0,0:0:0:0:
448,192,89643,1,0,0:0:0:0:
192,192,89643,1,0,0:0:0:0:
64,192,89750,1,0,0:0:0:0:
192,192,89857,1,0,0:0:0:0:
448,192,89857,1,0,0:0:0:0:
448,192,89964,1,0,0:0:0:0:
64,192,90071,1,0,0:0:0:0:
192,192,90071,1,0,0:0:0:0:
320,192,90125,1,0,0:0:0:0:
448,192,90178,1,0,0:0:0:0:
64,192,90232,1,0,0:0:0:0:
192,192,90286,1,0,0:0:0:0:
320,192,90339,1,0,0:0:0:0:
448,192,90393,1,0,0:0:0:0:
64,192,90446,1,0,0:0:0:0:
320,192,90500,1,0,0:0:0:0:
192,192,90500,1,0,0:0:0:0:
64,192,90607,1,0,0:0:0:0:
192,192,90714,1,0,0:0:0:0:
448,192,90714,1,0,0:0:0:0:
320,192,90821,1,0,0:0:0:0:
192,192,90928,1,0,0:0:0:0:
64,192,90928,1,0,0:0:0:0:
448,192,90928,1,0,0:0:0:0:
320,192,91036,1,0,0:0:0:0:
192,192,91143,1,0,0:0:0:0:
64,192,91143,1,0,0:0:0:0:
448,192,91250,1,0,0:0:0:0:
320,192,91357,1,0,0:0:0:0:
192,192,91357,1,0,0:0:0:0:
64,192,91464,1,0,0:0:0:0:
192,192,91571,1,0,0:0:0:0:
448,192,91571,1,0,0:0:0:0:
320,192,91678,1,0,0:0:0:0:
64,192,91786,1,0,0:0:0:0:
448,192,91786,1,0,0:0:0:0:
192,192,91786,1,0,0:0:0:0:
320,192,92000,1,0,0:0:0:0:
448,192,92000,1,0,0:0:0:0:
192,192,92000,1,0,0:0:0:0:
320,192,92214,1,0,0:0:0:0:
192,192,92214,1,0,0:0:0:0:
64,192,92214,1,0,0:0:0:0:
448,192,92321,1,0,0:0:0:0:
320,192,92428,1,0,0:0:0:0:
64,192,92428,1,0,0:0:0:0:
64,192,92536,1,0,0:0:0:0:
192,192,92643,1,0,0:0:0:0:
320,192,92643,1,0,0:0:0:0:
448,192,92643,1,0,0:0:0:0:
64,192,92857,1,0,0:0:0:0:
192,192,92857,1,0,0:0:0:0:
448,192,92857,1,0,0:0:0:0:
192,192,93071,1,0,0:0:0:0:
320,192,93071,1,0,0:0:0:0:
448,192,93071,1,0,0:0:0:0:
64,192,93178,1,0,0:0:0:0:
192,192,93286,1,0,0:0:0:0:
448,192,93286,1,0,0:0:0:0:
192,192,93393,1,0,0:0:0:0:
64,192,93500,1,0,0:0:0:0:
320,192,93500,1,0,0:0:0:0:
448,192,93500,1,0,0:0:0:0:
192,192,93714,1,0,0:0:0:0:
64,192,93714,1,0,0:0:0:0:
320,192,93714,1,0,0:0:0:0:
192,192,93928,1,0,0:0:0:0:
320,192,93928,1,0,0:0:0:0:
448,192,93928,1,0,0:0:0:0:
64,192,94036,1,0,0:0:0:0:
192,192,94143,1,0,0:0:0:0:
448,192,94143,1,0,0:0:0:0:
320,192,94250,1,0,0:0:0:0:
192,192,94357,1,0,0:0:0:0:
64,192,94357,1,0,0:0:0:0:
448,192,94357,1,0,0:0:0:0:
320,192,94464,1,0,0:0:0:0:
64,192,94571,1,0,0:0:0:0:
192,192,94571,1,0,0:0:0:0:
448,192,94678,1,0,0:0:0:0:
320,192,94786,1,0,0:0:0:0:
192,192,94786,1,0,0:0:0:0:
64,192,94893,1,0,0:0:0:0:
192,192,95000,1,0,0:0:0:0:
448,192,95000,1,0,0:0:0:0:
320,192,95107,1,0,0:0:0:0:
64,192,95214,1,0,0:0:0:0:
448,192,95214,1,0,0:0:0:0:
192,192,95214,1,0,0:0:0:0:
320,192,95428,1,0,0:0:0:0:
448,192,95428,1,0,0:0:0:0:
192,192,95428,1,0,0:0:0:0:
192,192,95643,1,0,0:0:0:0:
320,192,95643,1,0,0:0:0:0:
64,192,95643,1,0,0:0:0:0:
448,192,95750,1,0,0:0:0:0:
320,192,95857,1,0,0:0:0:0:
64,192,95857,1,0,0:0:0:0:
320,192,95964,1,0,0:0:0:0:
448,192,96071,1,0,0:0:0:0:
64,192,96071,1,0,0:0:0:0:
192,192,96071,1,0,0:0:0:0:
320,192,96286,1,0,0:0:0:0:
192,192,96286,1,0,0:0:0:0:
64,192,96286,1,0,0:0:0:0:
192,192,96500,1,0,0:0:0:0:
320,192,96500,1,0,0:0:0:0:
448,192,96500,1,0,0:0:0:0:
64,192,96607,1,0,0:0:0:0:
192,192,96714,1,0,0:0:0:0:
448,192,96714,1,0,0:0:0:0:
320,192,96821,1,0,0:0:0:0:
64,192,96928,1,0,0:0:0:0:
448,192,96928,1,0,0:0:0:0:
192,192,96982,1,0,0:0:0:0:
320,192,97036,1,0,0:0:0:0:
448,192,97089,1,0,0:0:0:0:
64,192,97143,1,0,0:0:0:0:
192,192,97196,1,0,0:0:0:0:
320,192,97250,1,0,0:0:0:0:
448,192,97303,1,0,0:0:0:0:
192,192,97357,1,0,0:0:0:0:
64,192,97357,1,0,0:0:0:0:
320,192,97464,1,0,0:0:0:0:
448,192,97571,1,0,0:0:0:0:
64,192,97571,1,0,0:0:0:0:
64,192,97678,1,0,0:0:0:0:
320,192,97786,5,0,0:0:0:0:
448,192,97786,1,0,0:0:0:0:
192,192,97893,1,0,0:0:0:0:
192,192,98000,1,0,0:0:0:0:
192,192,98107,1,0,0:0:0:0:
64,192,98214,1,0,0:0:0:0:
320,192,98214,1,0,0:0:0:0:
448,192,98321,1,0,0:0:0:0:
448,192,98428,1,0,0:0:0:0:
448,192,98536,1,0,0:0:0:0:
64,192,98643,1,0,0:0:0:0:
192,192,98643,1,0,0:0:0:0:
320,192,98750,1,0,0:0:0:0:
320,192,98857,1,0,0:0:0:0:
320,192,98964,1,0,0:0:0:0:
192,192,99071,1,0,0:0:0:0:
448,192,99071,1,0,0:0:0:0:
64,192,99178,1,0,0:0:0:0:
64,192,99286,1,0,0:0:0:0:
64,192,99393,1,0,0:0:0:0:
448,192,99500,1,0,0:0:0:0:
192,192,99500,1,0,0:0:0:0:
320,192,99607,1,0,0:0:0:0:
320,192,99714,1,0,0:0:0:0:
320,192,99821,1,0,0:0:0:0:
448,192,99928,1,0,0:0:0:0:
64,192,99928,1,0,0:0:0:0:
192,192,100036,1,0,0:0:0:0:
192,192,100143,1,0,0:0:0:0:
192,192,100250,1,0,0:0:0:0:
64,192,100357,1,0,0:0:0:0:
320,192,100357,1,0,0:0:0:0:
448,192,100464,1,0,0:0:0:0:
448,192,100571,1,0,0:0:0:0:
448,192,100678,1,0,0:0:0:0:
192,192,100786,1,0,0:0:0:0:
320,192,100786,1,0,0:0:0:0:
64,192,100893,1,0,0:0:0:0:
64,192,101000,1,0,0:0:0:0:
64,192,101107,1,0,0:0:0:0:
192,192,101214,1,0,0:0:0:0:
448,192,101214,1,0,0:0:0:0:
320,192,101321,1,0,0:0:0:0:
320,192,101428,1,0,0:0:0:0:
320,192,101536,1,0,0:0:0:0:
64,192,101643,1,0,0:0:0:0:
448,192,101643,1,0,0:0:0:0:
192,192,101750,1,0,0:0:0:0:
192,192,101857,1,0,0:0:0:0:
192,192,101964,1,0,0:0:0:0:
64,192,102071,1,0,0:0:0:0:
320,192,102071,1,0,0:0:0:0:
448,192,102178,1,0,0:0:0:0:
448,192,102286,1,0,0:0:0:0:
448,192,102393,1,0,0:0:0:0:
64,192,102500,1,0,0:0:0:0:
192,192,102500,1,0,0:0:0:0:
320,192,102607,1,0,0:0:0:0:
320,192,102714,1,0,0:0:0:0:
320,192,102821,1,0,0:0:0:0:
64,192,102928,1,0,0:0:0:0:
448,192,102928,1,0,0:0:0:0:
192,192,103036,1,0,0:0:0:0:
192,192,103143,1,0,0:0:0:0:
192,192,103250,1,0,0:0:0:0:
320,192,103357,1,0,0:0:0:0:
448,192,103357,1,0,0:0:0:0:
64,192,103464,1,0,0:0:0:0:
64,192,103571,1,0,0:0:0:0:
64,192,103678,1,0,0:0:0:0:
192,192,103786,1,0,0:0:0:0:
448,192,103786,1,0,0:0:0:0:
320,192,103893,1,0,0:0:0:0:
320,192,104000,1,0,0:0:0:0:
320,192,104107,1,0,0:0:0:0:
64,192,104214,1,0,0:0:0:0:
448,192,104214,1,0,0:0:0:0:
192,192,104321,1,0,0:0:0:0:
192,192,104428,1,0,0:0:0:0:
192,192,104536,1,0,0:0:0:0:
448,192,104643,1,0,0:0:0:0:
64,192,104643,1,0,0:0:0:0:
320,192,104750,1,0,0:0:0:0:
192,192,104857,1,0,0:0:0:0:
64,192,104857,1,0,0:0:0:0:
448,192,104964,1,0,0:0:0:0:
320,192,105071,1,0,0:0:0:0:
64,192,105071,1,0,0:0:0:0:
192,192,105178,1,0,0:0:0:0:
320,192,105286,1,0,0:0:0:0:
448,192,105286,1,0,0:0:0:0:
64,192,105393,1,0,0:0:0:0:
192,192,105500,1,0,0:0:0:0:
320,192,105500,1,0,0:0:0:0:
448,192,105607,1,0,0:0:0:0:
320,192,105714,1,0,0:0:0:0:
64,192,105714,1,0,0:0:0:0:
192,192,105821,1,0,0:0:0:0:
448,192,105928,1,0,0:0:0:0:
64,192,105928,1,0,0:0:0:0:
320,192,106036,1,0,0:0:0:0:
192,192,106143,1,0,0:0:0:0:
64,192,106143,1,0,0:0:0:0:
448,192,106250,1,0,0:0:0:0:
320,192,106357,1,0,0:0:0:0:
192,192,106357,1,0,0:0:0:0:
64,192,106428,1,0,0:0:0:0:
448,192,106500,1,0,0:0:0:0:
320,192,106571,1,0,0:0:0:0:
192,192,106643,1,0,0:0:0:0:
64,192,106714,1,0,0:0:0:0:
448,192,106786,1,0,0:0:0:0:
320,192,106857,1,0,0:0:0:0:
192,192,106928,1,0,0:0:0:0:
64,192,107000,1,0,0:0:0:0:
448,192,107071,1,0,0:0:0:0:
320,192,107143,1,0,0:0:0:0:
192,192,107214,1,0,0:0:0:0:
64,192,107286,1,0,0:0:0:0:
448,192,107286,1,0,0:0:0:0:
320,192,107357,1,0,0:0:0:0:
192,192,107428,1,0,0:0:0:0:
64,192,107500,1,0,0:0:0:0:
448,192,107571,1,0,0:0:0:0:
320,192,107643,1,0,0:0:0:0:
192,192,107714,1,0,0:0:0:0:
64,192,107786,1,0,0:0:0:0:
448,192,107857,1,0,0:0:0:0:
320,192,107928,1,0,0:0:0:0:
192,192,108000,1,0,0:0:0:0:
64,192,108071,1,0,0:0:0:0:
448,192,108125,1,0,0:0:0:0:
320,192,108178,1,0,0:0:0:0:
192,192,108232,1,0,0:0:0:0:
64,192,108286,1,0,0:0:0:0:
448,192,108339,1,0,0:0:0:0:
320,192,108393,1,0,0:0:0:0:
192,192,108446,1,0,0:0:0:0:
64,192,108500,1,0,0:0:0:0:
448,192,108553,1,0,0:0:0:0:
320,192,108607,1,0,0:0:0:0:
192,192,108661,1,0,0:0:0:0:
64,192,108714,1,0,0:0:0:0:
448,192,108768,1,0,0:0:0:0:
320,192,108821,1,0,0:0:0:0:
192,192,108875,1,0,0:0:0:0:
64,192,108928,1,0,0:0:0:0:
448,192,108982,1,0,0:0:0:0:
320,192,109036,1,0,0:0:0:0:
192,192,109089,1,0,0:0:0:0:
64,192,109143,1,0,0:0:0:0:
448,192,109196,1,0,0:0:0:0:
320,192,109250,1,0,0:0:0:0:
192,192,109303,1,0,0:0:0:0:
64,192,109357,1,0,0:0:0:0:
448,192,109411,1,0,0:0:0:0:
320,192,109464,1,0,0:0:0:0:
192,192,109518,1,0,0:0:0:0:
64,192,109571,1,0,0:0:0:0:
448,192,109625,1,0,0:0:0:0:
320,192,109678,1,0,0:0:0:0:
192,192,109732,1,0,0:0:0:0:
64,192,109786,1,0,0:0:0:0:
320,192,109821,1,0,0:0:0:0:
448,192,109857,1,0,0:0:0:0:
64,192,109893,1,0,0:0:0:0:
192,192,109928,1,0,0:0:0:0:
320,192,109964,1,0,0:0:0:0:
448,192,110000,1,0,0:0:0:0:
64,192,110036,1,0,0:0:0:0:
192,192,110071,1,0,0:0:0:0:
320,192,110107,1,0,0:0:0:0:
448,192,110143,1,0,0:0:0:0:
64,192,110178,1,0,0:0:0:0:
192,192,110214,1,0,0:0:0:0:
320,192,110250,1,0,0:0:0:0:
448,192,110286,1,0,0:0:0:0:
64,192,110321,5,0,0:0:0:0:
192,192,110357,1,0,0:0:0:0:
320,192,110393,1,0,0:0:0:0:
448,192,110428,1,0,0:0:0:0:
64,192,110464,1,0,0:0:0:0:
192,192,110500,1,0,0:0:0:0:
320,192,110536,1,0,0:0:0:0:
448,192,110571,1,0,0:0:0:0:
64,192,110607,1,0,0:0:0:0:
192,192,110643,1,0,0:0:0:0:
320,192,110678,1,0,0:0:0:0:
448,192,110714,1,0,0:0:0:0:
64,192,110750,1,0,0:0:0:0:
192,192,110786,1,0,0:0:0:0:
320,192,110821,1,0,0:0:0:0:
448,192,110857,1,0,0:0:0:0:
64,192,110893,1,0,0:0:0:0:
192,192,110928,1,0,0:0:0:0:
320,192,110964,1,0,0:0:0:0:
448,192,111000,1,0,0:0:0:0:
64,192,111036,1,0,0:0:0:0:
192,192,111071,1,0,0:0:0:0:
192,192,111286,1,0,0:0:0:0:
448,192,111286,1,0,0:0:0:0:
192,192,111393,1,0,0:0:0:0:
448,192,111500,1,0,0:0:0:0:
320,192,111607,1,0,0:0:0:0:
192,192,111714,1,0,0:0:0:0:
64,192,111821,1,0,0:0:0:0:
320,192,111928,1,0,0:0:0:0:
448,192,112036,1,0,0:0:0:0:
320,192,112143,1,0,0:0:0:0:
192,192,112250,1,0,0:0:0:0:
448,192,112357,1,0,0:0:0:0:
320,192,112464,1,0,0:0:0:0:
192,192,112571,1,0,0:0:0:0:
64,192,112678,1,0,0:0:0:0:
320,192,112786,1,0,0:0:0:0:
192,192,112893,1,0,0:0:0:0:
64,192,113000,1,0,0:0:0:0:
192,192,113107,1,0,0:0:0:0:
448,192,113214,1,0,0:0:0:0:
320,192,113321,1,0,0:0:0:0:
64,192,113428,1,0,0:0:0:0:
192,192,113536,1,0,0:0:0:0:
448,192,113643,1,0,0:0:0:0:
320,192,113750,1,0,0:0:0:0:
192,192,113857,1,0,0:0:0:0:
64,192,113964,1,0,0:0:0:0:
320,192,114071,1,0,0:0:0:0:
448,192,114071,1,0,0:0:0:0:
192,192,114178,1,0,0:0:0:0:
64,192,114286,1,0,0:0:0:0:
448,192,114286,1,0,0:0:0:0:
192,192,114393,1,0,0:0:0:0:
320,192,114500,1,0,0:0:0:0:
64,192,114500,1,0,0:0:0:0:
448,192,114607,1,0,0:0:0:0:
320,192,114714,1,0,0:0:0:0:
64,192,114714,1,0,0:0:0:0:
192,192,114821,1,0,0:0:0:0:
320,192,114928,1,0,0:0:0:0:
448,192,114928,1,0,0:0:0:0:
64,192,114928,1,0,0:0:0:0:
448,192,115036,1,0,0:0:0:0:
320,192,115143,1,0,0:0:0:0:
192,192,115143,1,0,0:0:0:0:
64,192,115143,1,0,0:0:0:0:
448,192,115250,1,0,0:0:0:0:
320,192,115357,1,0,0:0:0:0:
64,192,115357,1,0,0:0:0:0:
192,192,115464,1,0,0:0:0:0:
320,192,115571,1,0,0:0:0:0:
448,192,115571,128,0,115786:0:0:0:0:
320,192,115786,1,0,0:0:0:0:
192,192,115786,1,0,0:0:0:0:
64,192,115786,1,0,0:0:0:0:
448,192,115893,1,0,0:0:0:0:
320,192,116000,1,0,0:0:0:0:
192,192,116000,1,0,0:0:0:0:
64,192,116107,1,0,0:0:0:0:
192,192,116214,1,0,0:0:0:0:
320,192,116214,1,0,0:0:0:0:
448,192,116214,128,0,116428:0:0:0:0:
64,192,116428,128,0,116643:0:0:0:0:
192,192,116428,1,0,0:0:0:0:
320,192,116428,1,0,0:0:0:0:
192,192,116643,1,0,0:0:0:0:
320,192,116643,1,0,0:0:0:0:
448,192,116643,1,0,0:0:0:0:
64,192,116750,1,0,0:0:0:0:
192,192,116803,1,0,0:0:0:0:
320,192,116857,1,0,0:0:0:0:
448,192,116911,1,0,0:0:0:0:
64,192,116964,1,0,0:0:0:0:
192,192,117018,1,0,0:0:0:0:
320,192,117071,1,0,0:0:0:0:
448,192,117071,1,0,0:0:0:0:
192,192,117178,1,0,0:0:0:0:
64,192,117178,128,0,117500:0:0:0:0:
192,192,117500,1,0,0:0:0:0:
448,192,117500,1,0,0:0:0:0:
448,192,117607,1,0,0:0:0:0:
192,192,117714,1,0,0:0:0:0:
192,192,117821,1,0,0:0:0:0:
64,192,117928,1,0,0:0:0:0:
320,192,117928,1,0,0:0:0:0:
448,192,117928,1,0,0:0:0:0:
192,192,118036,1,0,0:0:0:0:
448,192,118143,1,0,0:0:0:0:
64,192,118143,1,0,0:0:0:0:
320,192,118250,1,0,0:0:0:0:
192,192,118357,1,0,0:0:0:0:
64,192,118357,1,0,0:0:0:0:
448,192,118357,1,0,0:0:0:0:
320,192,118464,1,0,0:0:0:0:
192,192,118571,1,0,0:0:0:0:
64,192,118571,1,0,0:0:0:0:
448,192,118678,1,0,0:0:0:0:
192,192,118786,1,0,0:0:0:0:
64,192,118786,1,0,0:0:0:0:
64,192,118893,1,0,0:0:0:0:
320,192,119000,1,0,0:0:0:0:
448,192,119000,1,0,0:0:0:0:
320,192,119107,1,0,0:0:0:0:
192,192,119214,1,0,0:0:0:0:
64,192,119214,1,0,0:0:0:0:
448,192,119321,1,0,0:0:0:0:
320,192,119428,1,0,0:0:0:0:
192,192,119428,1,0,0:0:0:0:
64,192,119536,1,0,0:0:0:0:
192,192,119643,1,0,0:0:0:0:
448,192,119643,1,0,0:0:0:0:
320,192,119750,1,0,0:0:0:0:
64,192,119857,1,0,0:0:0:0:
448,192,119857,1,0,0:0:0:0:
192,192,119964,1,0,0:0:0:0:
320,192,120071,1,0,0:0:0:0:
448,192,120071,1,0,0:0:0:0:
64,192,120178,1,0,0:0:0:0:
192,192,120286,1,0,0:0:0:0:
320,192,120286,1,0,0:0:0:0:
448,192,120393,1,0,0:0:0:0:
192,192,120500,1,0,0:0:0:0:
64,192,120500,1,0,0:0:0:0:
320,192,120607,1,0,0:0:0:0:
448,192,120714,1,0,0:0:0:0:
64,192,120714,1,0,0:0:0:0:
448,192,120821,1,0,0:0:0:0:
192,192,120928,1,0,0:0:0:0:
64,192,120928,1,0,0:0:0:0:
192,192,121036,1,0,0:0:0:0:
448,192,121143,1,0,0:0:0:0:
320,192,121143,1,0,0:0:0:0:
320,192,121250,1,0,0:0:0:0:
192,192,121357,1,0,0:0:0:0:
64,192,121357,1,0,0:0:0:0:
448,192,121464,1,0,0:0:0:0:
320,192,121571,1,0,0:0:0:0:
64,192,121571,1,0,0:0:0:0:
192,192,121678,1,0,0:0:0:0:
320,192,121786,1,0,0:0:0:0:
448,192,121786,1,0,0:0:0:0:
64,192,121893,1,0,0:0:0:0:
192,192,122000,1,0,0:0:0:0:
320,192,122000,1,0,0:0:0:0:
448,192,122107,1,0,0:0:0:0:
192,192,122214,1,0,0:0:0:0:
64,192,122214,1,0,0:0:0:0:
192,192,122321,1,0,0:0:0:0:
448,192,122428,1,0,0:0:0:0:
320,192,122428,1,0,0:0:0:0:
320,192,122536,1,0,0:0:0:0:
192,192,122643,1,0,0:0:0:0:
64,192,122643,1,0,0:0:0:0:
64,192,122750,1,0,0:0:0:0:
320,192,122857,1,0,0:0:0:0:
448,192,122857,1,0,0:0:0:0:
192,192,122964,1,0,0:0:0:0:
64,192,123071,1,0,0:0:0:0:
448,192,123071,1,0,0:0:0:0:
320,192,123178,1,0,0:0:0:0:
192,192,123286,1,0,0:0:0:0:
448,192,123286,1,0,0:0:0:0:
64,192,123393,1,0,0:0:0:0:
192,192,123500,1,0,0:0:0:0:
320,192,123500,1,0,0:0:0:0:
320,192,123607,1,0,0:0:0:0:
64,192,123714,1,0,0:0:0:0:
192,192,123714,1,0,0:0:0:0:
64,192,123821,1,0,0:0:0:0:
320,192,123928,1,0,0:0:0:0:
448,192,123928,1,0,0:0:0:0:
448,192,124036,5,0,0:0:0:0:
64,192,124143,1,0,0:0:0:0:
192,192,124143,1,0,0:0:0:0:
320,192,124250,1,0,0:0:0:0:
448,192,124357,1,0,0:0:0:0:
64,192,124357,1,0,0:0:0:0:
192,192,124464,1,0,0:0:0:0:
320,192,124571,1,0,0:0:0:0:
448,192,124571,1,0,0:0:0:0:
320,192,124678,1,0,0:0:0:0:
64,192,124786,1,0,0:0:0:0:
192,192,124786,1,0,0:0:0:0:
448,192,124893,1,0,0:0:0:0:
320,192,125000,1,0,0:0:0:0:
192,192,125000,1,0,0:0:0:0:
64,192,125107,1,0,0:0:0:0:
320,192,125214,1,0,0:0:0:0:
448,192,125214,1,0,0:0:0:0:
192,192,125321,1,0,0:0:0:0:
64,192,125321,1,0,0:0:0:0:
320,192,125428,1,0,0:0:0:0:
448,192,125428,1,0,0:0:0:0:
64,192,125536,1,0,0:0:0:0:
192,192,125643,1,0,0:0:0:0:
320,192,125643,1,0,0:0:0:0:
448,192,125750,1,0,0:0:0:0:
64,192,125750,1,0,0:0:0:0:
192,192,125857,1,0,0:0:0:0:
320,192,125857,1,0,0:0:0:0:
448,192,125964,1,0,0:0:0:0:
192,192,126071,1,0,0:0:0:0:
64,192,126071,1,0,0:0:0:0:
448,192,126178,1,0,0:0:0:0:
320,192,126178,1,0,0:0:0:0:
192,192,126286,1,0,0:0:0:0:
64,192,126286,1,0,0:0:0:0:
448,192,126393,1,0,0:0:0:0:
320,192,126500,1,0,0:0:0:0:
192,192,126500,1,0,0:0:0:0:
64,192,126607,1,0,0:0:0:0:
448,192,126607,1,0,0:0:0:0:
192,192,126714,1,0,0:0:0:0:
320,192,126714,1,0,0:0:0:0:
64,192,126821,1,0,0:0:0:0:
192,192,126928,1,0,0:0:0:0:
448,192,126928,1,0,0:0:0:0:
320,192,127036,1,0,0:0:0:0:
64,192,127036,1,0,0:0:0:0:
192,192,127143,1,0,0:0:0:0:
448,192,127143,1,0,0:0:0:0:
320,192,127250,1,0,0:0:0:0:
192,192,127357,1,0,0:0:0:0:
64,192,127357,1,0,0:0:0:0:
448,192,127464,1,0,0:0:0:0:
320,192,127464,1,0,0:0:0:0:
192,192,127571,1,0,0:0:0:0:
64,192,127571,1,0,0:0:0:0:
448,192,127678,1,0,0:0:0:0:
320,192,127786,1,0,0:0:0:0:
192,192,127786,1,0,0:0:0:0:
64,192,127893,1,0,0:0:0:0:
448,192,127893,1,0,0:0:0:0:
320,192,128000,1,0,0:0:0:0:
192,192,128000,1,0,0:0:0:0:
64,192,128107,1,0,0:0:0:0:
192,192,128214,1,0,0:0:0:0:
448,192,128214,1,0,0:0:0:0:
320,192,128321,1,0,0:0:0:0:
64,192,128321,1,0,0:0:0:0:
192,192,128428,1,0,0:0:0:0:
448,192,128428,1,0,0:0:0:0:
320,192,128536,1,0,0:0:0:0:
192,192,128643,1,0,0:0:0:0:
64,192,128643,1,0,0:0:0:0:
448,192,128750,1,0,0:0:0:0:
320,192,128750,1,0,0:0:0:0:
64,192,128857,1,0,0:0:0:0:
192,192,128857,1,0,0:0:0:0:
448,192,128964,1,0,0:0:0:0:
320,192,129071,1,0,0:0:0:0:
192,192,129071,1,0,0:0:0:0:
64,192,129178,1,0,0:0:0:0:
448,192,129178,1,0,0:0:0:0:
320,192,129286,1,0,0:0:0:0:
192,192,129286,1,0,0:0:0:0:
64,192,129393,1,0,0:0:0:0:
320,192,129500,1,0,0:0:0:0:
448,192,129500,1,0,0:0:0:0:
192,192,129607,1,0,0:0:0:0:
64,192,129607,1,0,0:0:0:0:
320,192,129714,1,0,0:0:0:0:
448,192,129714,1,0,0:0:0:0:
64,192,129821,1,0,0:0:0:0:
192,192,129928,1,0,0:0:0:0:
320,192,129928,1,0,0:0:0:0:
448,192,130036,1,0,0:0:0:0:
64,192,130036,1,0,0:0:0:0:
192,192,130143,1,0,0:0:0:0:
320,192,130143,1,0,0:0:0:0:
448,192,130250,1,0,0:0:0:0:
320,192,130357,1,0,0:0:0:0:
64,192,130357,1,0,0:0:0:0:
192,192,130464,1,0,0:0:0:0:
448,192,130464,1,0,0:0:0:0:
320,192,130571,1,0,0:0:0:0:
64,192,130571,1,0,0:0:0:0:
192,192,130678,1,0,0:0:0:0:
448,192,130786,1,0,0:0:0:0:
320,192,130786,1,0,0:0:0:0:
192,192,130893,1,0,0:0:0:0:
64,192,130893,1,0,0:0:0:0:
448,192,131000,1,0,0:0:0:0:
320,192,131000,1,0,0:0:0:0:
64,192,131107,1,0,0:0:0:0:
192,192,131214,1,0,0:0:0:0:
320,192,131214,1,0,0:0:0:0:
448,192,131321,1,0,0:0:0:0:
192,192,131428,1,0,0:0:0:0:
64,192,131428,1,0,0:0:0:0:
64,192,131536,1,0,0:0:0:0:
320,192,131643,1,0,0:0:0:0:
448,192,131643,1,0,0:0:0:0:
192,192,131643,1,0,0:0:0:0:
64,192,131750,1,0,0:0:0:0:
192,192,131857,1,0,0:0:0:0:
448,192,131857,1,0,0:0:0:0:
320,192,131964,1,0,0:0:0:0:
192,192,132071,1,0,0:0:0:0:
64,192,132071,1,0,0:0:0:0:
448,192,132178,1,0,0:0:0:0:
320,192,132178,1,0,0:0:0:0:
192,192,132286,1,0,0:0:0:0:
64,192,132286,1,0,0:0:0:0:
320,192,132393,1,0,0:0:0:0:
192,192,132500,1,0,0:0:0:0:
448,192,132500,1,0,0:0:0:0:
64,192,132607,1,0,0:0:0:0:
320,192,132607,1,0,0:0:0:0:
192,192,132714,1,0,0:0:0:0:
448,192,132714,1,0,0:0:0:0:
320,192,132821,1,0,0:0:0:0:
192,192,132928,1,0,0:0:0:0:
64,192,132928,1,0,0:0:0:0:
448,192,133036,1,0,0:0:0:0:
320,192,133036,1,0,0:0:0:0:
192,192,133143,1,0,0:0:0:0:
64,192,133143,1,0,0:0:0:0:
448,192,133250,1,0,0:0:0:0:
320,192,133357,1,0,0:0:0:0:
192,192,133357,1,0,0:0:0:0:
64,192,133464,1,0,0:0:0:0:
448,192,133464,1,0,0:0:0:0:
320,192,133571,1,0,0:0:0:0:
192,192,133571,1,0,0:0:0:0:
64,192,133678,1,0,0:0:0:0:
320,192,133786,1,0,0:0:0:0:
448,192,133786,1,0,0:0:0:0:
192,192,133893,1,0,0:0:0:0:
64,192,133893,1,0,0:0:0:0:
320,192,134000,1,0,0:0:0:0:
448,192,134000,1,0,0:0:0:0:
64,192,134107,1,0,0:0:0:0:
192,192,134214,1,0,0:0:0:0:
320,192,134214,1,0,0:0:0:0:
448,192,134321,1,0,0:0:0:0:
64,192,134321,1,0,0:0:0:0:
192,192,134428,1,0,0:0:0:0:
320,192,134428,1,0,0:0:0:0:
448,192,134536,1,0,0:0:0:0:
64,192,134643,1,0,0:0:0:0:
320,192,134643,1,0,0:0:0:0:
192,192,134750,1,0,0:0:0:0:
448,192,134750,1,0,0:0:0:0:
320,192,134857,1,0,0:0:0:0:
64,192,134857,1,0,0:0:0:0:
192,192,134964,1,0,0:0:0:0:
320,192,135071,1,0,0:0:0:0:
448,192,135071,1,0,0:0:0:0:
64,192,135178,1,0,0:0:0:0:
192,192,135178,1,0,0:0:0:0:
320,192,135286,1,0,0:0:0:0:
448,192,135286,1,0,0:0:0:0:
64,192,135393,1,0,0:0:0:0:
192,192,135500,1,0,0:0:0:0:
320,192,135500,1,0,0:0:0:0:
448,192,135607,1,0,0:0:0:0:
64,192,135607,1,0,0:0:0:0:
192,192,135714,1,0,0:0:0:0:
320,192,135714,1,0,0:0:0:0:
448,192,135821,1,0,0:0:0:0:
192,192,135928,1,0,0:0:0:0:
64,192,135928,1,0,0:0:0:0:
320,192,136036,1,0,0:0:0:0:
448,192,136036,1,0,0:0:0:0:
192,192,136143,1,0,0:0:0:0:
64,192,136143,1,0,0:0:0:0:
448,192,136250,1,0,0:0:0:0:
320,192,136357,1,0,0:0:0:0:
192,192,136357,1,0,0:0:0:0:
64,192,136464,1,0,0:0:0:0:
448,192,136464,1,0,0:0:0:0:
320,192,136571,1,0,0:0:0:0:
192,192,136571,1,0,0:0:0:0:
64,192,136678,1,0,0:0:0:0:
192,192,136786,1,0,0:0:0:0:
448,192,136786,1,0,0:0:0:0:
320,192,136893,1,0,0:0:0:0:
64,192,136893,1,0,0:0:0:0:
192,192,137000,1,0,0:0:0:0:
448,192,137000,1,0,0:0:0:0:
320,192,137107,1,0,0:0:0:0:
192,192,137214,1,0,0:0:0:0:
64,192,137214,1,0,0:0:0:0:
448,192,137214,1,0,0:0:0:0:
192,192,137428,1,0,0:0:0:0:
64,192,137428,1,0,0:0:0:0:
320,192,137428,1,0,0:0:0:0:
192,192,137643,1,0,0:0:0:0:
320,192,137643,1,0,0:0:0:0:
448,192,137643,1,0,0:0:0:0:
64,192,137857,1,0,0:0:0:0:
192,192,137857,1,0,0:0:0:0:
320,192,137857,1,0,0:0:0:0:
448,192,138071,1,0,0:0:0:0:
320,192,138125,1,0,0:0:0:0:
192,192,138178,1,0,0:0:0:0:
64,192,138232,1,0,0:0:0:0:
448,192,138286,1,0,0:0:0:0:
320,192,138339,1,0,0:0:0:0:
192,192,138393,1,0,0:0:0:0:
64,192,138446,1,0,0:0:0:0:
448,192,138500,1,0,0:0:0:0:
320,192,138571,1,0,0:0:0:0:
192,192,138643,1,0,0:0:0:0:
64,192,138714,1,0,0:0:0:0:
448,192,138714,1,0,0:0:0:0:
320,192,138786,1,0,0:0:0:0:
192,192,138857,1,0,0:0:0:0:
320,192,138928,5,0,0:0:0:0:
448,192,138928,1,0,0:0:0:0:
448,192,139036,1,0,0:0:0:0:
64,192,139143,1,0,0:0:0:0:
192,192,139143,1,0,0:0:0:0:
192,192,139250,1,0,0:0:0:0:
448,192,139357,1,0,0:0:0:0:
320,192,139357,1,0,0:0:0:0:
320,192,139464,1,0,0:0:0:0:
192,192,139571,1,0,0:0:0:0:
64,192,139571,1,0,0:0:0:0:
64,192,139678,1,0,0:0:0:0:
192,192,139786,1,0,0:0:0:0:
320,192,139786,1,0,0:0:0:0:
448,192,139786,1,0,0:0:0:0:
64,192,140000,1,0,0:0:0:0:
192,192,140000,1,0,0:0:0:0:
448,192,140000,1,0,0:0:0:0:
192,192,140214,1,0,0:0:0:0:
320,192,140214,1,0,0:0:0:0:
64,192,140214,1,0,0:0:0:0:
64,192,140643,1,0,0:0:0:0:
320,192,140643,1,0,0:0:0:0:
448,192,140643,1,0,0:0:0:0:
64,192,140857,1,0,0:0:0:0:
192,192,140857,1,0,0:0:0:0:
320,192,140857,1,0,0:0:0:0:
192,192,141071,1,0,0:0:0:0:
320,192,141071,1,0,0:0:0:0:
448,192,141071,1,0,0:0:0:0:
64,192,141500,1,0,0:0:0:0:
320,192,141500,1,0,0:0:0:0:
448,192,141500,1,0,0:0:0:0:
192,192,141714,1,0,0:0:0:0:
320,192,141714,1,0,0:0:0:0:
64,192,141714,1,0,0:0:0:0:
64,192,141928,1,0,0:0:0:0:
192,192,141928,1,0,0:0:0:0:
448,192,141928,1,0,0:0:0:0:
192,192,142357,1,0,0:0:0:0:
448,192,142357,1,0,0:0:0:0:
320,192,142357,1,0,0:0:0:0:
64,192,142464,1,0,0:0:0:0:
192,192,142571,1,0,0:0:0:0:
320,192,142571,1,0,0:0:0:0:
448,192,142678,1,0,0:0:0:0:
320,192,142786,1,0,0:0:0:0:
192,192,142786,1,0,0:0:0:0:
64,192,142786,1,0,0:0:0:0:
448,192,142893,1,0,0:0:0:0:
320,192,143000,1,0,0:0:0:0:
64,192,143000,1,0,0:0:0:0:
192,192,143107,1,0,0:0:0:0:
64,192,143214,1,0,0:0:0:0:
320,192,143214,1,0,0:0:0:0:
448,192,143214,1,0,0:0:0:0:
64,192,143428,1,0,0:0:0:0:
192,192,143428,1,0,0:0:0:0:
448,192,143428,1,0,0:0:0:0:
320,192,143643,1,0,0:0:0:0:
192,192,143643,1,0,0:0:0:0:
64,192,143643,1,0,0:0:0:0:
448,192,143857,1,0,0:0:0:0:
320,192,143857,1,0,0:0:0:0:
192,192,143857,1,0,0:0:0:0:
64,192,144071,1,0,0:0:0:0:
320,192,144071,1,0,0:0:0:0:
448,192,144071,1,0,0:0:0:0:
192,192,144286,1,0,0:0:0:0:
64,192,144286,1,0,0:0:0:0:
448,192,144286,1,0,0:0:0:0:
64,192,144500,1,0,0:0:0:0:
320,192,144500,1,0,0:0:0:0:
192,192,144500,1,0,0:0:0:0:
64,192,144714,1,0,0:0:0:0:
320,192,144714,1,0,0:0:0:0:
448,192,144714,1,0,0:0:0:0:
192,192,144928,1,0,0:0:0:0:
64,192,144928,1,0,0:0:0:0:
320,192,144982,1,0,0:0:0:0:
448,192,144982,1,0,0:0:0:0:
192,192,145036,1,0,0:0:0:0:
64,192,145036,1,0,0:0:0:0:
320,192,145089,1,0,0:0:0:0:
448,192,145089,1,0,0:0:0:0:
192,192,145143,1,0,0:0:0:0:
64,192,145143,1,0,0:0:0:0:
320,192,145196,1,0,0:0:0:0:
448,192,145196,1,0,0:0:0:0:
192,192,145250,1,0,0:0:0:0:
64,192,145250,1,0,0:0:0:0:
320,192,145303,1,0,0:0:0:0:
448,192,145303,1,0,0:0:0:0:
192,192,145357,1,0,0:0:0:0:
64,192,145357,1,0,0:0:0:0:
448,192,145571,1,0,0:0:0:0:
320,192,145571,1,0,0:0:0:0:
192,192,145678,1,0,0:0:0:0:
448,192,145786,1,0,0:0:0:0:
320,192,145786,1,0,0:0:0:0:
320,192,145893,1,0,0:0:0:0:
64,192,146000,1,0,0:0:0:0:
192,192,146000,1,0,0:0:0:0:
192,192,146107,1,0,0:0:0:0:
448,192,146214,1,0,0:0:0:0:
320,192,146214,1,0,0:0:0:0:
448,192,146321,1,0,0:0:0:0:
192,192,146428,1,0,0:0:0:0:
64,192,146428,1,0,0:0:0:0:
64,192,146536,1,0,0:0:0:0:
320,192,146643,1,0,0:0:0:0:
448,192,146643,1,0,0:0:0:0:
192,192,146643,1,0,0:0:0:0:
64,192,146857,1,0,0:0:0:0:
192,192,146857,1,0,0:0:0:0:
320,192,146857,1,0,0:0:0:0:
64,192,147071,1,0,0:0:0:0:
320,192,147071,1,0,0:0:0:0:
448,192,147071,1,0,0:0:0:0:
192,192,147500,1,0,0:0:0:0:
64,192,147500,1,0,0:0:0:0:
448,192,147500,1,0,0:0:0:0:
192,192,147714,1,0,0:0:0:0:
320,192,147714,1,0,0:0:0:0:
64,192,147714,1,0,0:0:0:0:
64,192,147928,1,0,0:0:0:0:
320,192,147928,1,0,0:0:0:0:
448,192,147928,1,0,0:0:0:0:
64,192,148357,1,0,0:0:0:0:
320,192,148357,1,0,0:0:0:0:
448,192,148357,1,0,0:0:0:0:
64,192,148571,1,0,0:0:0:0:
192,192,148571,1,0,0:0:0:0:
320,192,148571,1,0,0:0:0:0:
64,192,148786,1,0,0:0:0:0:
192,192,148786,1,0,0:0:0:0:
448,192,148786,1,0,0:0:0:0:
320,192,149214,1,0,0:0:0:0:
448,192,149214,1,0,0:0:0:0:
64,192,149214,1,0,0:0:0:0:
192,192,149321,1,0,0:0:0:0:
448,192,149428,1,0,0:0:0:0:
320,192,149428,1,0,0:0:0:0:
64,192,149536,1,0,0:0:0:0:
448,192,149643,1,0,0:0:0:0:
192,192,149643,1,0,0:0:0:0:
320,192,149643,1,0,0:0:0:0:
64,192,149750,1,0,0:0:0:0:
192,192,149857,1,0,0:0:0:0:
320,192,149857,1,0,0:0:0:0:
448,192,149964,1,0,0:0:0:0:
192,192,150071,1,0,0:0:0:0:
64,192,150071,1,0,0:0:0:0:
320,192,150071,1,0,0:0:0:0:
448,192,150178,1,0,0:0:0:0:
320,192,150286,1,0,0:0:0:0:
64,192,150286,1,0,0:0:0:0:
192,192,150393,1,0,0:0:0:0:
64,192,150500,1,0,0:0:0:0:
320,192,150500,1,0,0:0:0:0:
448,192,150500,1,0,0:0:0:0:
64,192,150714,1,0,0:0:0:0:
192,192,150714,1,0,0:0:0:0:
448,192,150714,1,0,0:0:0:0:
192,192,150928,1,0,0:0:0:0:
320,192,150928,1,0,0:0:0:0:
448,192,150928,1,0,0:0:0:0:
64,192,151143,1,0,0:0:0:0:
192,192,151143,1,0,0:0:0:0:
448,192,151143,1,0,0:0:0:0:
192,192,151357,1,0,0:0:0:0:
320,192,151357,1,0,0:0:0:0:
64,192,151357,1,0,0:0:0:0:
64,192,151571,1,0,0:0:0:0:
320,192,151571,1,0,0:0:0:0:
448,192,151571,1,0,0:0:0:0:
192,192,151786,1,0,0:0:0:0:
64,192,151786,1,0,0:0:0:0:
320,192,151839,1,0,0:0:0:0:
448,192,151839,1,0,0:0:0:0:
64,192,151893,1,0,0:0:0:0:
192,192,151893,1,0,0:0:0:0:
320,192,151946,1,0,0:0:0:0:
448,192,151946,1,0,0:0:0:0:
64,192,152000,1,0,0:0:0:0:
192,192,152000,1,0,0:0:0:0:
320,192,152053,1,0,0:0:0:0:
448,192,152053,1,0,0:0:0:0:
64,192,152107,1,0,0:0:0:0:
192,192,152107,1,0,0:0:0:0:
320,192,152161,1,0,0:0:0:0:
448,192,152161,1,0,0:0:0:0:
192,192,152214,1,0,0:0:0:0:
64,192,152214,1,0,0:0:0:0:
64,192,152321,1,0,0:0:0:0:
320,192,152428,1,0,0:0:0:0:
448,192,152428,1,0,0:0:0:0:
448,192,152536,1,0,0:0:0:0:
192,192,152643,5,0,0:0:0:0:
64,192,152643,1,0,0:0:0:0:
320,192,152750,1,0,0:0:0:0:
448,192,152857,1,0,0:0:0:0:
64,192,152857,1,0,0:0:0:0:
192,192,152964,1,0,0:0:0:0:
448,192,153071,1,0,0:0:0:0:
320,192,153071,1,0,0:0:0:0:
64,192,153178,1,0,0:0:0:0:
192,192,153286,1,0,0:0:0:0:
320,192,153286,1,0,0:0:0:0:
448,192,153393,1,0,0:0:0:0:
320,192,153500,1,0,0:0:0:0:
64,192,153500,1,0,0:0:0:0:
192,192,153500,1,0,0:0:0:0:
64,192,153714,1,0,0:0:0:0:
320,192,153714,1,0,0:0:0:0:
448,192,153714,1,0,0:0:0:0:
192,192,153928,1,0,0:0:0:0:
64,192,153928,1,0,0:0:0:0:
448,192,153928,1,0,0:0:0:0:
320,192,154036,1,0,0:0:0:0:
192,192,154143,1,0,0:0:0:0:
64,192,154143,1,0,0:0:0:0:
448,192,154250,1,0,0:0:0:0:
64,192,154357,1,0,0:0:0:0:
192,192,154357,1,0,0:0:0:0:
320,192,154357,1,0,0:0:0:0:
448,192,154571,1,0,0:0:0:0:
320,192,154571,1,0,0:0:0:0:
192,192,154571,1,0,0:0:0:0:
64,192,154786,1,0,0:0:0:0:
192,192,154786,1,0,0:0:0:0:
320,192,154786,1,0,0:0:0:0:
448,192,154893,1,0,0:0:0:0:
320,192,155000,1,0,0:0:0:0:
64,192,155000,1,0,0:0:0:0:
192,192,155107,1,0,0:0:0:0:
448,192,155214,1,0,0:0:0:0:
320,192,155214,1,0,0:0:0:0:
64,192,155214,1,0,0:0:0:0:
192,192,155428,1,0,0:0:0:0:
320,192,155428,1,0,0:0:0:0:
448,192,155428,1,0,0:0:0:0:
64,192,155643,1,0,0:0:0:0:
320,192,155643,1,0,0:0:0:0:
448,192,155643,1,0,0:0:0:0:
192,192,155750,1,0,0:0:0:0:
320,192,155857,1,0,0:0:0:0:
448,192,155857,1,0,0:0:0:0:
64,192,155964,1,0,0:0:0:0:
192,192,156071,1,0,0:0:0:0:
320,192,156071,1,0,0:0:0:0:
448,192,156178,1,0,0:0:0:0:
320,192,156286,1,0,0:0:0:0:
64,192,156286,1,0,0:0:0:0:
192,192,156393,1,0,0:0:0:0:
448,192,156500,1,0,0:0:0:0:
64,192,156500,1,0,0:0:0:0:
320,192,156607,1,0,0:0:0:0:
192,192,156714,1,0,0:0:0:0:
64,192,156714,1,0,0:0:0:0:
448,192,156821,1,0,0:0:0:0:
320,192,156928,1,0,0:0:0:0:
192,192,156928,1,0,0:0:0:0:
64,192,157036,1,0,0:0:0:0:
320,192,157143,1,0,0:0:0:0:
448,192,157143,1,0,0:0:0:0:
192,192,157250,1,0,0:0:0:0:
64,192,157357,1,0,0:0:0:0:
448,192,157357,1,0,0:0:0:0:
320,192,157464,1,0,0:0:0:0:
192,192,157571,1,0,0:0:0:0:
64,192,157571,1,0,0:0:0:0:
448,192,157678,1,0,0:0:0:0:
320,192,157786,1,0,0:0:0:0:
192,192,157786,1,0,0:0:0:0:
64,192,157893,1,0,0:0:0:0:
192,192,158000,1,0,0:0:0:0:
448,192,158000,1,0,0:0:0:0:
320,192,158107,1,0,0:0:0:0:
192,192,158214,1,0,0:0:0:0:
64,192,158214,1,0,0:0:0:0:
448,192,158321,1,0,0:0:0:0:
320,192,158428,1,0,0:0:0:0:
192,192,158428,1,0,0:0:0:0:
64,192,158536,1,0,0:0:0:0:
320,192,158643,1,0,0:0:0:0:
448,192,158643,1,0,0:0:0:0:
192,192,158696,1,0,0:0:0:0:
64,192,158696,1,0,0:0:0:0:
320,192,158750,1,0,0:0:0:0:
448,192,158750,1,0,0:0:0:0:
192,192,158803,1,0,0:0:0:0:
64,192,158803,1,0,0:0:0:0:
320,192,158857,1,0,0:0:0:0:
448,192,158857,1,0,0:0:0:0:
192,192,158911,1,0,0:0:0:0:
64,192,158911,1,0,0:0:0:0:
320,192,158964,1,0,0:0:0:0:
448,192,158964,1,0,0:0:0:0:
192,192,159018,1,0,0:0:0:0:
64,192,159018,1,0,0:0:0:0:
320,192,159071,1,0,0:0:0:0:
448,192,159071,1,0,0:0:0:0:
64,192,159286,1,0,0:0:0:0:
192,192,159286,1,0,0:0:0:0:
192,192,159393,1,0,0:0:0:0:
320,192,159500,1,0,0:0:0:0:
448,192,159500,1,0,0:0:0:0:
64,192,159607,1,0,0:0:0:0:
192,192,159714,1,0,0:0:0:0:
320,192,159714,1,0,0:0:0:0:
448,192,159821,1,0,0:0:0:0:
320,192,159928,1,0,0:0:0:0:
64,192,159928,1,0,0:0:0:0:
192,192,160036,1,0,0:0:0:0:
448,192,160143,1,0,0:0:0:0:
64,192,160143,1,0,0:0:0:0:
320,192,160250,1,0,0:0:0:0:
192,192,160357,1,0,0:0:0:0:
64,192,160357,1,0,0:0:0:0:
448,192,160357,1,0,0:0:0:0:
320,192,160571,1,0,0:0:0:0:
192,192,160571,1,0,0:0:0:0:
64,192,160571,1,0,0:0:0:0:
448,192,160786,1,0,0:0:0:0:
320,192,160786,1,0,0:0:0:0:
192,192,160786,1,0,0:0:0:0:
64,192,160893,1,0,0:0:0:0:
192,192,161000,1,0,0:0:0:0:
320,192,161000,1,0,0:0:0:0:
448,192,161107,1,0,0:0:0:0:
192,192,161214,1,0,0:0:0:0:
320,192,161214,1,0,0:0:0:0:
64,192,161214,1,0,0:0:0:0:
320,192,161428,1,0,0:0:0:0:
448,192,161428,1,0,0:0:0:0:
192,192,161428,1,0,0:0:0:0:
64,192,161643,1,0,0:0:0:0:
320,192,161643,1,0,0:0:0:0:
192,192,161643,1,0,0:0:0:0:
448,192,161750,1,0,0:0:0:0:
192,192,161857,1,0,0:0:0:0:
320,192,161857,1,0,0:0:0:0:
64,192,161964,1,0,0:0:0:0:
448,192,162071,1,0,0:0:0:0:
320,192,162071,1,0,0:0:0:0:
192,192,162071,1,0,0:0:0:0:
64,192,162286,1,0,0:0:0:0:
448,192,162286,1,0,0:0:0:0:
192,192,162286,1,0,0:0:0:0:
192,192,162500,1,0,0:0:0:0:
64,192,162500,1,0,0:0:0:0:
320,192,162500,1,0,0:0:0:0:
448,192,162607,1,0,0:0:0:0:
320,192,162714,1,0,0:0:0:0:
64,192,162714,1,0,0:0:0:0:
192,192,162821,1,0,0:0:0:0:
320,192,162928,1,0,0:0:0:0:
448,192,162928,1,0,0:0:0:0:
64,192,163036,1,0,0:0:0:0:
192,192,163143,1,0,0:0:0:0:
320,192,163143,1,0,0:0:0:0:
448,192,163250,1,0,0:0:0:0:
320,192,163357,1,0,0:0:0:0:
64,192,163357,1,0,0:0:0:0:
192,192,163464,1,0,0:0:0:0:
448,192,163571,1,0,0:0:0:0:
320,192,163571,1,0,0:0:0:0:
64,192,163678,1,0,0:0:0:0:
192,192,163786,1,0,0:0:0:0:
320,192,163786,1,0,0:0:0:0:
448,192,163893,1,0,0:0:0:0:
192,192,164000,1,0,0:0:0:0:
64,192,164000,1,0,0:0:0:0:
320,192,164107,1,0,0:0:0:0:
448,192,164214,1,0,0:0:0:0:
64,192,164214,1,0,0:0:0:0:
192,192,164321,1,0,0:0:0:0:
320,192,164428,1,0,0:0:0:0:
448,192,164428,1,0,0:0:0:0:
64,192,164536,1,0,0:0:0:0:
320,192,164643,1,0,0:0:0:0:
192,192,164643,1,0,0:0:0:0:
448,192,164750,1,0,0:0:0:0:
320,192,164857,1,0,0:0:0:0:
64,192,164857,1,0,0:0:0:0:
192,192,164964,1,0,0:0:0:0:
64,192,165071,1,0,0:0:0:0:
448,192,165071,1,0,0:0:0:0:
320,192,165178,1,0,0:0:0:0:
192,192,165286,1,0,0:0:0:0:
64,192,165286,1,0,0:0:0:0:
448,192,165393,1,0,0:0:0:0:
64,192,165500,1,0,0:0:0:0:
192,192,165500,1,0,0:0:0:0:
320,192,165553,1,0,0:0:0:0:
448,192,165553,1,0,0:0:0:0:
192,192,165607,1,0,0:0:0:0:
64,192,165607,1,0,0:0:0:0:
320,192,165661,1,0,0:0:0:0:
448,192,165661,1,0,0:0:0:0:
192,192,165714,1,0,0:0:0:0:
64,192,165714,1,0,0:0:0:0:
448,192,165768,1,0,0:0:0:0:
320,192,165768,1,0,0:0:0:0:
192,192,165821,1,0,0:0:0:0:
64,192,165821,1,0,0:0:0:0:
320,192,165875,1,0,0:0:0:0:
448,192,165875,1,0,0:0:0:0:
192,192,165928,1,0,0:0:0:0:
64,192,165928,1,0,0:0:0:0:
448,192,166036,1,0,0:0:0:0:
320,192,166143,1,0,0:0:0:0:
192,192,166250,1,0,0:0:0:0:
64,192,166357,1,0,0:0:0:0:
448,192,166357,1,0,0:0:0:0:
320,192,166464,1,0,0:0:0:0:
192,192,166571,1,0,0:0:0:0:
448,192,166678,1,0,0:0:0:0:
320,192,166786,1,0,0:0:0:0:
64,192,166786,1,0,0:0:0:0:
192,192,166893,1,0,0:0:0:0:
320,192,167000,1,0,0:0:0:0:
448,192,167107,1,0,0:0:0:0:
64,192,167214,1,0,0:0:0:0:
192,192,167214,1,0,0:0:0:0:
320,192,167321,1,0,0:0:0:0:
320,192,167428,1,0,0:0:0:0:
320,192,167536,1,0,0:0:0:0:
64,192,167643,1,0,0:0:0:0:
448,192,167643,1,0,0:0:0:0:
192,192,167750,1,0,0:0:0:0:
320,192,167857,1,0,0:0:0:0:
448,192,167964,1,0,0:0:0:0:
192,192,168071,1,0,0:0:0:0:
64,192,168071,1,0,0:0:0:0:
320,192,168178,1,0,0:0:0:0:
448,192,168286,1,0,0:0:0:0:
192,192,168393,1,0,0:0:0:0:
64,192,168500,1,0,0:0:0:0:
320,192,168500,1,0,0:0:0:0:
448,192,168607,1,0,0:0:0:0:
192,192,168714,1,0,0:0:0:0:
64,192,168821,1,0,0:0:0:0:
320,192,168928,1,0,0:0:0:0:
448,192,168928,1,0,0:0:0:0:
192,192,169036,1,0,0:0:0:0:
192,192,169143,1,0,0:0:0:0:
192,192,169250,1,0,0:0:0:0:
64,192,169357,1,0,0:0:0:0:
448,192,169357,1,0,0:0:0:0:
320,192,169464,1,0,0:0:0:0:
192,192,169571,1,0,0:0:0:0:
64,192,169678,1,0,0:0:0:0:
320,192,169786,1,0,0:0:0:0:
448,192,169786,1,0,0:0:0:0:
192,192,169893,1,0,0:0:0:0:
192,192,170000,1,0,0:0:0:0:
448,192,170107,1,0,0:0:0:0:
448,192,170214,1,0,0:0:0:0:
64,192,170214,1,0,0:0:0:0:
192,192,170321,5,0,0:0:0:0:
320,192,170428,1,0,0:0:0:0:
448,192,170536,1,0,0:0:0:0:
64,192,170643,1,0,0:0:0:0:
320,192,170643,1,0,0:0:0:0:
192,192,170750,1,0,0:0:0:0:
192,192,170857,1,0,0:0:0:0:
192,192,170964,1,0,0:0:0:0:
64,192,171071,1,0,0:0:0:0:
448,192,171071,1,0,0:0:0:0:
320,192,171143,1,0,0:0:0:0:
192,192,171214,1,0,0:0:0:0:
64,192,171286,1,0,0:0:0:0:
320,192,171393,1,0,0:0:0:0:
448,192,171500,128,0,171928:0:0:0:0:
64,192,171928,128,0,172357:0:0:0:0:
192,192,172357,128,0,172786:0:0:0:0:
448,192,172571,128,0,173000:0:0:0:0:
64,192,172786,128,0,173214:0:0:0:0:
320,192,173000,128,0,173214:0:0:0:0:
64,192,174071,1,0,0:0:0:0:
320,192,174071,1,0,0:0:0:0:
448,192,174178,1,0,0:0:0:0:
320,192,174285,1,0,0:0:0:0:
192,192,174285,1,0,0:0:0:0:
64,192,174392,1,0,0:0:0:0:
320,192,174499,1,0,0:0:0:0:
448,192,174499,1,0,0:0:0:0:
192,192,174607,1,0,0:0:0:0:
448,192,174714,1,0,0:0:0:0:
64,192,174714,1,0,0:0:0:0:
320,192,174821,1,0,0:0:0:0:
64,192,174928,1,0,0:0:0:0:
192,192,174928,1,0,0:0:0:0:
448,192,175035,1,0,0:0:0:0:
320,192,175142,1,0,0:0:0:0:
192,192,175142,1,0,0:0:0:0:
64,192,175249,1,0,0:0:0:0:
320,192,175357,1,0,0:0:0:0:
448,192,175357,1,0,0:0:0:0:
64,192,175464,1,0,0:0:0:0:
192,192,175571,1,0,0:0:0:0:
448,192,175642,1,0,0:0:0:0:
320,192,175714,1,0,0:0:0:0:
192,192,175785,1,0,0:0:0:0:
64,192,175785,1,0,0:0:0:0:
448,192,175892,1,0,0:0:0:0:
320,192,175999,1,0,0:0:0:0:
192,192,175999,1,0,0:0:0:0:
64,192,176107,1,0,0:0:0:0:
320,192,176214,1,0,0:0:0:0:
448,192,176214,1,0,0:0:0:0:
192,192,176321,1,0,0:0:0:0:
64,192,176428,1,0,0:0:0:0:
448,192,176428,1,0,0:0:0:0:
192,192,176499,1,0,0:0:0:0:
320,192,176571,1,0,0:0:0:0:
64,192,176642,1,0,0:0:0:0:
448,192,176642,1,0,0:0:0:0:
192,192,176749,1,0,0:0:0:0:
320,192,176857,1,0,0:0:0:0:
448,192,176857,1,0,0:0:0:0:
64,192,176964,1,0,0:0:0:0:
192,192,177071,1,0,0:0:0:0:
320,192,177071,1,0,0:0:0:0:
448,192,177178,1,0,0:0:0:0:
64,192,177285,1,0,0:0:0:0:
320,192,177285,1,0,0:0:0:0:
192,192,177392,1,0,0:0:0:0:
448,192,177499,1,0,0:0:0:0:
320,192,177499,1,0,0:0:0:0:
64,192,177607,1,0,0:0:0:0:
192,192,177714,1,0,0:0:0:0:
320,192,177714,1,0,0:0:0:0:
448,192,177821,1,0,0:0:0:0:
320,192,177928,1,0,0:0:0:0:
64,192,177928,1,0,0:0:0:0:
192,192,178035,1,0,0:0:0:0:
448,192,178142,1,0,0:0:0:0:
64,192,178142,1,0,0:0:0:0:
320,192,178249,1,0,0:0:0:0:
192,192,178303,1,0,0:0:0:0:
448,192,178357,1,0,0:0:0:0:
64,192,178357,1,0,0:0:0:0:
320,192,178464,1,0,0:0:0:0:
192,192,178571,1,0,0:0:0:0:
64,192,178571,1,0,0:0:0:0:
448,192,178678,1,0,0:0:0:0:
192,192,178785,1,0,0:0:0:0:
64,192,178785,1,0,0:0:0:0:
320,192,178857,1,0,0:0:0:0:
448,192,178928,1,0,0:0:0:0:
64,192,178999,1,0,0:0:0:0:
192,192,178999,1,0,0:0:0:0:
320,192,179107,1,0,0:0:0:0:
448,192,179214,1,0,0:0:0:0:
64,192,179214,1,0,0:0:0:0:
192,192,179321,1,0,0:0:0:0:
320,192,179428,1,0,0:0:0:0:
448,192,179428,1,0,0:0:0:0:
64,192,179535,1,0,0:0:0:0:
192,192,179642,1,0,0:0:0:0:
320,192,179642,1,0,0:0:0:0:
448,192,179749,1,0,0:0:0:0:
320,192,179857,1,0,0:0:0:0:
64,192,179857,1,0,0:0:0:0:
192,192,179964,1,0,0:0:0:0:
448,192,180071,1,0,0:0:0:0:
320,192,180124,1,0,0:0:0:0:
192,192,180178,1,0,0:0:0:0:
64,192,180232,1,0,0:0:0:0:
448,192,180285,1,0,0:0:0:0:
320,192,180339,1,0,0:0:0:0:
192,192,180392,1,0,0:0:0:0:
64,192,180446,1,0,0:0:0:0:
448,192,180499,1,0,0:0:0:0:
320,192,180553,1,0,0:0:0:0:
192,192,180607,1,0,0:0:0:0:
64,192,180660,1,0,0:0:0:0:
